  0
SECTION
  2
HEADER
  9
$ACADVER
  1
AC1012
  9
$DWGCODEPAGE
  3
ansi_1252
  9
$INSBASE
 10
0.0
 20
0.0
 30
0.0
  9
$EXTMIN
 10
0.0
 20
0.0
 30
0.0
  9
$EXTMAX
 10
44.0
 20
34.0
 30
0.0
  9
$LIMMIN
 10
0.0
 20
0.0
  9
$LIMMAX
 10
44.0
 20
34.0
  9
$ORTHOMODE
 70
     0
  9
$REGENMODE
 70
     1
  9
$FILLMODE
 70
     1
  9
$QTEXTMODE
 70
     0
  9
$MIRRTEXT
 70
     1
  9
$DRAGMODE
 70
     2
  9
$LTSCALE
 40
1.0
  9
$OSMODE
 70
    37
  9
$ATTMODE
 70
     1
  9
$TEXTSIZE
 40
0.1377952756
  9
$TRACEWID
 40
0.05
  9
$TEXTSTYLE
  7
STANDARD
  9
$CLAYER
  8
0
  9
$CELTYPE
  6
BYLAYER
  9
$CECOLOR
 62
   256
  9
$CELTSCALE
 40
1.0
  9
$DELOBJ
 70
     1
  9
$DISPSILH
 70
     0
  9
$DIMSCALE
 40
1.0
  9
$DIMASZ
 40
0.1875
  9
$DIMEXO
 40
0.05
  9
$DIMDLI
 40
0.38
  9
$DIMRND
 40
0.0
  9
$DIMDLE
 40
0.0
  9
$DIMEXE
 40
0.125
  9
$DIMTP
 40
0.0
  9
$DIMTM
 40
0.0
  9
$DIMTXT
 40
0.3888888889
  9
$DIMCEN
 40
0.09
  9
$DIMTSZ
 40
0.0
  9
$DIMTOL
 70
     0
  9
$DIMLIM
 70
     0
  9
$DIMTIH
 70
     1
  9
$DIMTOH
 70
     1
  9
$DIMSE1
 70
     0
  9
$DIMSE2
 70
     0
  9
$DIMTAD
 70
     1
  9
$DIMZIN
 70
     1
  9
$DIMBLK
  1

  9
$DIMASO
 70
     1
  9
$DIMSHO
 70
     1
  9
$DIMPOST
  1

  9
$DIMAPOST
  1

  9
$DIMALT
 70
     0
  9
$DIMALTD
 70
     2
  9
$DIMALTF
 40
25.4
  9
$DIMLFAC
 40
1.0
  9
$DIMTOFL
 70
     0
  9
$DIMTVP
 40
0.0
  9
$DIMTIX
 70
     0
  9
$DIMSOXD
 70
     0
  9
$DIMSAH
 70
     0
  9
$DIMBLK1
  1

  9
$DIMBLK2
  1

  9
$DIMSTYLE
  2
STANDARD
  9
$DIMCLRD
 70
     0
  9
$DIMCLRE
 70
     0
  9
$DIMCLRT
 70
     0
  9
$DIMTFAC
 40
1.0
  9
$DIMGAP
 40
0.06
  9
$DIMJUST
 70
     0
  9
$DIMSD1
 70
     0
  9
$DIMSD2
 70
     0
  9
$DIMTOLJ
 70
     1
  9
$DIMTZIN
 70
     1
  9
$DIMALTZ
 70
     0
  9
$DIMALTTZ
 70
     0
  9
$DIMFIT
 70
     3
  9
$DIMUPT
 70
     0
  9
$DIMUNIT
 70
     2
  9
$DIMDEC
 70
     2
  9
$DIMTDEC
 70
     3
  9
$DIMALTU
 70
     2
  9
$DIMALTTD
 70
     2
  9
$DIMTXSTY
  7
STANDARD
  9
$DIMAUNIT
 70
     0
  9
$LUNITS
 70
     2
  9
$LUPREC
 70
     3
  9
$SKETCHINC
 40
0.1
  9
$FILLETRAD
 40
0.5
  9
$AUNITS
 70
     0
  9
$AUPREC
 70
     2
  9
$MENU
  1
.
  9
$ELEVATION
 40
0.0
  9
$PELEVATION
 40
0.0
  9
$THICKNESS
 40
0.0
  9
$LIMCHECK
 70
     0
  9
$CHAMFERA
 40
0.5
  9
$CHAMFERB
 40
0.5
  9
$CHAMFERC
 40
1.0
  9
$CHAMFERD
 40
0.0
  9
$SKPOLY
 70
     0
  9
$TDCREATE
 40
2456029.691330787
  9
$TDUPDATE
 40
2456029.691330798
  9
$TDINDWG
 40
0.0000000116
  9
$TDUSRTIMER
 40
0.0000000116
  9
$USRTIMER
 70
     1
  9
$ANGBASE
 50
0.0
  9
$ANGDIR
 70
     0
  9
$PDMODE
 70
     0
  9
$PDSIZE
 40
-1.0
  9
$PLINEWID
 40
0.0
  9
$COORDS
 70
     1
  9
$SPLFRAME
 70
     0
  9
$SPLINETYPE
 70
     6
  9
$SPLINESEGS
 70
     8
  9
$ATTDIA
 70
     0
  9
$ATTREQ
 70
     1
  9
$HANDLING
 70
     1
  9
$HANDSEED
  5
F2
  9
$SURFTAB1
 70
     6
  9
$SURFTAB2
 70
     6
  9
$SURFTYPE
 70
     6
  9
$SURFU
 70
     6
  9
$SURFV
 70
     6
  9
$UCSNAME
  2

  9
$UCSORG
 10
0.0
 20
0.0
 30
0.0
  9
$UCSXDIR
 10
1.0
 20
0.0
 30
0.0
  9
$UCSYDIR
 10
0.0
 20
1.0
 30
0.0
  9
$PUCSNAME
  2

  9
$PUCSORG
 10
0.0
 20
0.0
 30
0.0
  9
$PUCSXDIR
 10
1.0
 20
0.0
 30
0.0
  9
$PUCSYDIR
 10
0.0
 20
1.0
 30
0.0
  9
$USERI1
 70
     0
  9
$USERI2
 70
     0
  9
$USERI3
 70
     0
  9
$USERI4
 70
     0
  9
$USERI5
 70
     0
  9
$USERR1
 40
0.0
  9
$USERR2
 40
0.0
  9
$USERR3
 40
0.0
  9
$USERR4
 40
0.0
  9
$USERR5
 40
0.0
  9
$WORLDVIEW
 70
     1
  9
$SHADEDGE
 70
     3
  9
$SHADEDIF
 70
    70
  9
$TILEMODE
 70
     1
  9
$MAXACTVP
 70
    64
  9
$PINSBASE
 10
0.0
 20
0.0
 30
0.0
  9
$PLIMCHECK
 70
     0
  9
$PEXTMIN
 10
1.0000000000E+20
 20
1.0000000000E+20
 30
1.0000000000E+20
  9
$PEXTMAX
 10
-1.0000000000E+20
 20
-1.0000000000E+20
 30
-1.0000000000E+20
  9
$PLIMMIN
 10
0.0
 20
0.0
  9
$PLIMMAX
 10
12.0
 20
9.0
  9
$UNITMODE
 70
     0
  9
$VISRETAIN
 70
     1
  9
$PLINEGEN
 70
     0
  9
$PSLTSCALE
 70
     1
  9
$TREEDEPTH
 70
  3020
  9
$PICKSTYLE
 70
     1
  9
$CMLSTYLE
  2
STANDARD
  9
$CMLJUST
 70
     0
  9
$CMLSCALE
 40
1.0
  9
$SAVEIMAGES
 70
     1
  0
ENDSEC
  0
SECTION
  2
CLASSES
  0
CLASS
  1
ACDBDICTIONARYWDFLT
  2
AcDbDictionaryWithDefault
  3
ObjectDBX Classes
 90
    32768
280
     0
281
     0
  0
CLASS
  1
VISUALSTYLE
  2
AcDbVisualStyle
  3
ObjectDBX Classes
 90
     4095
280
     0
281
     0
  0
CLASS
  1
MATERIAL
  2
AcDbMaterial
  3
ObjectDBX Classes
 90
     1153
280
     0
281
     0
  0
CLASS
  1
SCALE
  2
AcDbScale
  3
ObjectDBX Classes
 90
     1153
280
     0
281
     0
  0
CLASS
  1
DICTIONARYVAR
  2
AcDbDictionaryVar
  3
ObjectDBX Classes
 90
        0
280
     0
281
     0
  0
CLASS
  1
XRECORD
  2
AcDbXrecord
  3
AutoCAD 2000
 90
    32768
280
     0
281
     0
  0
ENDSEC
  0
SECTION
  2
TABLES
  0
TABLE
  2
VPORT
  5
8
330
0
100
AcDbSymbolTable
 70
     1
  0
VPORT
  5
29
330
8
100
AcDbSymbolTableRecord
100
AcDbViewportTableRecord
  2
*ACTIVE
 70
     0
 10
0.0
 20
0.0
 11
1.0
 21
1.0
 12
22.0
 22
17.0
 13
0.0
 23
0.0
 14
0.5
 24
0.5
 15
0.5
 25
0.5
 16
0.0
 26
0.0
 36
1.0
 17
0.0
 27
0.0
 37
0.0
 40
34.0
 41
1.2941176471
 42
50.0
 43
0.0
 44
0.0
 50
0.0
 51
0.0
 71
     0
 72
  2000
 73
     1
 74
     3
 75
     0
 76
     0
 77
     0
 78
     0
  0
ENDTAB
  0
TABLE
  2
LTYPE
  5
5
330
0
100
AcDbSymbolTable
 70
     6
  0
LTYPE
  5
14
330
5
100
AcDbSymbolTableRecord
100
AcDbLinetypeTableRecord
  2
BYBLOCK
 70
     0
  3

 72
    65
 73
     0
 40
0.0
  0
LTYPE
  5
15
330
5
100
AcDbSymbolTableRecord
100
AcDbLinetypeTableRecord
  2
BYLAYER
 70
     0
  3

 72
    65
 73
     0
 40
0.0
  0
LTYPE
  5
16
330
5
100
AcDbSymbolTableRecord
100
AcDbLinetypeTableRecord
  2
CONTINUOUS
 70
     0
  3
Solid line
 72
    65
 73
     0
 40
0.0
  0
LTYPE
  5
3F
330
5
100
AcDbSymbolTableRecord
100
AcDbLinetypeTableRecord
  2
HIDDEN
 70
     0
  3
Hidden __ __ __ __ __ __ __ __ __ __ __ __ __ __
 72
    65
 73
     2
 40
0.075
 49
0.05
 74
     0
 49
-0.025
 74
     0
  0
LTYPE
  5
40
330
5
100
AcDbSymbolTableRecord
100
AcDbLinetypeTableRecord
  2
PHANTOM
 70
     0
  3
Phantom ______  __  __  ______  __  __  ______
 72
    65
 73
     6
 40
0.5
 49
0.25
 74
     0
 49
-0.05
 74
     0
 49
0.05
 74
     0
 49
-0.05
 74
     0
 49
0.05
 74
     0
 49
-0.05
 74
     0
  0
LTYPE
  5
41
330
5
100
AcDbSymbolTableRecord
100
AcDbLinetypeTableRecord
  2
CENTER
 70
     0
  3
Center ____ _ ____ _ ____ _ ____ _ ____ _ ____
 72
    65
 73
     4
 40
0.4
 49
0.25
 74
     0
 49
-0.05
 74
     0
 49
0.05
 74
     0
 49
-0.05
 74
     0
  0
LTYPE
  5
42
330
5
100
AcDbSymbolTableRecord
100
AcDbLinetypeTableRecord
  2
CENTERX2
 70
     0
  3
Center (2x) ________  __  ________  __  _____
 72
    65
 73
     4
 40
0.8
 49
0.5
 74
     0
 49
-0.1
 74
     0
 49
0.1
 74
     0
 49
-0.1
 74
     0
  0
LTYPE
  5
43
330
5
100
AcDbSymbolTableRecord
100
AcDbLinetypeTableRecord
  2
DOT2
 70
     0
  3
Dot (.5x) ........................................
 72
    65
 73
     2
 40
0.025
 49
0.0
 74
     0
 49
-0.025
 74
     0
  0
ENDTAB
  0
TABLE
  2
LAYER
  5
2
330
0
100
AcDbSymbolTable
 70
     2
  0
LAYER
  5
10
330
2
100
AcDbSymbolTableRecord
100
AcDbLayerTableRecord
  2
0
 70
     0
 62
     7
  6
CONTINUOUS
  0
LAYER
  5
44
330
2
100
AcDbSymbolTableRecord
100
AcDbLayerTableRecord
  2
FORMAT
 70
     0
 62
     7
  6
CONTINUOUS
  0
ENDTAB
  0
TABLE
  2
STYLE
  5
3
330
0
100
AcDbSymbolTable
 70
     2
  0
STYLE
  5
11
330
3
100
AcDbSymbolTableRecord
100
AcDbTextStyleTableRecord
  2
STANDARD
 70
     0
 40
0.0
 41
1.0
 50
0.0
 71
     0
 42
0.2
  3
txt
  4

  0
STYLE
  5
77
330
3
100
AcDbSymbolTableRecord
100
AcDbTextStyleTableRecord
  2
SLDTEXTSTYLE0
 70
     0
 40
0.0
 41
0.75
 50
0.0
 71
     0
 42
0.2
  3
TXT
  4

  0
ENDTAB
  0
TABLE
  2
VIEW
  5
6
330
0
100
AcDbSymbolTable
 70
     0
  0
ENDTAB
  0
TABLE
  2
UCS
  5
7
330
0
100
AcDbSymbolTable
 70
     0
  0
ENDTAB
  0
TABLE
  2
APPID
  5
9
330
0
100
AcDbSymbolTable
 70
     1
  0
APPID
  5
12
330
9
100
AcDbSymbolTableRecord
100
AcDbRegAppTableRecord
  2
ACAD
 70
     0
  0
ENDTAB
  0
TABLE
  2
DIMSTYLE
  5
A
330
0
100
AcDbSymbolTable
 70
     4
  0
DIMSTYLE
105
27
330
A
100
AcDbSymbolTableRecord
100
AcDbDimStyleTableRecord
  2
STANDARD
 70
     0
  3

  4

  5

  6

  7

 40
1.0
 41
0.18
 42
0.0625
 43
0.38
 44
0.18
 45
0.0
 46
0.0
 47
0.0
 48
0.0
140
0.18
141
0.09
142
0.0
143
25.4
144
1.0
145
0.0
146
1.0
147
0.09
 71
     0
 72
     0
 73
     1
 74
     1
 75
     0
 76
     0
 77
     0
 78
     0
170
     0
171
     2
172
     0
173
     0
174
     0
175
     0
176
     0
177
     0
178
     0
270
     2
271
     4
272
     4
273
     2
274
     2
340
11
275
     0
280
     0
281
     0
282
     0
283
     1
284
     0
285
     0
286
     0
287
     3
288
     0
  0
DIMSTYLE
105
78
102
{ACAD_REACTORS
330
54
330
83
330
8E
330
99
330
C3
102
}
330
A
100
AcDbSymbolTableRecord
100
AcDbDimStyleTableRecord
  2
SLDDIMSTYLE0
 70
     0
  3

  4

  5

  6

  7

 40
1.0
 41
0.1875
 42
0.0625
 43
0.38
 44
0.0
 45
0.000000001
 46
0.0
 47
0.0
 48
0.0
140
0.2916666667
141
0.09
142
0.0
143
25.4
144
1.0
145
0.0
146
1.0
147
0.0729166667
 71
     0
 72
     0
 73
     1
 74
     1
 75
     0
 76
     0
 77
     0
 78
    12
170
     0
171
     2
172
     0
173
     1
174
     0
175
     0
176
     0
177
     0
178
     0
270
     5
271
     3
272
     3
273
     2
274
     2
340
77
275
     0
280
     0
281
     0
282
     0
283
     1
284
    12
285
     0
286
     0
287
     3
288
     0
  0
DIMSTYLE
105
A5
102
{ACAD_REACTORS
330
A4
330
AE
102
}
330
A
100
AcDbSymbolTableRecord
100
AcDbDimStyleTableRecord
  2
SLDDIMSTYLE1
 70
     0
  3

  4

  5

  6

  7

 40
1.0
 41
0.1875
 42
0.0625
 43
0.38
 44
0.0
 45
0.000000001
 46
0.0
 47
0.0
 48
0.0
140
0.2916666667
141
0.0
142
0.0
143
25.4
144
1.0
145
0.0
146
1.0
147
0.0729166667
 71
     0
 72
     0
 73
     1
 74
     1
 75
     0
 76
     0
 77
     0
 78
    12
170
     0
171
     2
172
     0
173
     1
174
     0
175
     0
176
     0
177
     0
178
     0
270
     5
271
     3
272
     3
273
     2
274
     2
340
77
275
     0
280
     0
281
     0
282
     0
283
     1
284
    12
285
     0
286
     0
287
     3
288
     0
  0
DIMSTYLE
105
B8
102
{ACAD_REACTORS
330
B7
330
CE
330
D9
330
E4
102
}
330
A
100
AcDbSymbolTableRecord
100
AcDbDimStyleTableRecord
  2
SLDDIMSTYLE2
 70
     0
  3

  4

  5

  6

  7

 40
1.0
 41
0.1875
 42
0.0625
 43
0.38
 44
0.0
 45
0.000000001
 46
0.0
 47
0.0
 48
0.0
140
0.2916666667
141
0.09
142
0.0
143
25.4
144
1.0
145
0.0
146
1.0
147
0.0729166667
 71
     0
 72
     0
 73
     1
 74
     1
 75
     0
 76
     0
 77
     0
 78
     4
170
     0
171
     2
172
     0
173
     1
174
     0
175
     0
176
     0
177
     0
178
     0
270
     5
271
     3
272
     3
273
     2
274
     2
340
77
275
     0
280
     0
281
     0
282
     0
283
     1
284
    12
285
     0
286
     0
287
     3
288
     0
  0
ENDTAB
  0
TABLE
  2
BLOCK_RECORD
  5
1
330
0
100
AcDbSymbolTable
 70
    12
  0
BLOCK_RECORD
  5
1F
330
1
100
AcDbSymbolTableRecord
100
AcDbBlockTableRecord
  2
*MODEL_SPACE
  0
BLOCK_RECORD
  5
1B
330
1
100
AcDbSymbolTableRecord
100
AcDbBlockTableRecord
  2
*PAPER_SPACE
  0
BLOCK_RECORD
  5
23
330
1
100
AcDbSymbolTableRecord
100
AcDbBlockTableRecord
  2
*PAPER_SPACE0
  0
BLOCK_RECORD
  5
79
330
1
100
AcDbSymbolTableRecord
100
AcDbBlockTableRecord
  2
*D1
  0
BLOCK_RECORD
  5
84
330
1
100
AcDbSymbolTableRecord
100
AcDbBlockTableRecord
  2
*D2
  0
BLOCK_RECORD
  5
8F
330
1
100
AcDbSymbolTableRecord
100
AcDbBlockTableRecord
  2
*D3
  0
BLOCK_RECORD
  5
9A
330
1
100
AcDbSymbolTableRecord
100
AcDbBlockTableRecord
  2
*D4
  0
BLOCK_RECORD
  5
A6
330
1
100
AcDbSymbolTableRecord
100
AcDbBlockTableRecord
  2
*D5
  0
BLOCK_RECORD
  5
AF
330
1
100
AcDbSymbolTableRecord
100
AcDbBlockTableRecord
  2
*D6
  0
BLOCK_RECORD
  5
B9
330
1
100
AcDbSymbolTableRecord
100
AcDbBlockTableRecord
  2
*D7
  0
BLOCK_RECORD
  5
C4
330
1
100
AcDbSymbolTableRecord
100
AcDbBlockTableRecord
  2
*D8
  0
BLOCK_RECORD
  5
CF
330
1
100
AcDbSymbolTableRecord
100
AcDbBlockTableRecord
  2
*D9
  0
BLOCK_RECORD
  5
DA
330
1
100
AcDbSymbolTableRecord
100
AcDbBlockTableRecord
  2
*D10
  0
BLOCK_RECORD
  5
E5
330
1
100
AcDbSymbolTableRecord
100
AcDbBlockTableRecord
  2
*D11
  0
ENDTAB
  0
ENDSEC
  0
SECTION
  2
BLOCKS
  0
BLOCK
  5
20
330
1F
100
AcDbEntity
  8
0
100
AcDbBlockBegin
  2
*MODEL_SPACE
 70
     0
 10
0.0
 20
0.0
 30
0.0
  3
*MODEL_SPACE
  1

  0
ENDBLK
  5
21
330
1F
100
AcDbEntity
  8
0
100
AcDbBlockEnd
  0
BLOCK
  5
1C
330
1B
100
AcDbEntity
 67
     1
  8
0
100
AcDbBlockBegin
  2
*PAPER_SPACE
 70
     0
 10
0.0
 20
0.0
 30
0.0
  3
*PAPER_SPACE
  1

  0
ENDBLK
  5
1D
330
1B
100
AcDbEntity
 67
     1
  8
0
100
AcDbBlockEnd
  0
BLOCK
  5
24
330
23
100
AcDbEntity
  8
0
100
AcDbBlockBegin
  2
*PAPER_SPACE0
 70
     0
 10
0.0
 20
0.0
 30
0.0
  3
*PAPER_SPACE0
  1

  0
ENDBLK
  5
25
330
23
100
AcDbEntity
  8
0
100
AcDbBlockEnd
  0
BLOCK
  5
7A
330
79
100
AcDbEntity
  8
0
100
AcDbBlockBegin
  2
*D1
 70
     1
 10
0.0
 20
0.0
 30
0.0
  3
*D1
  1

  0
SOLID
  5
7C
330
79
100
AcDbEntity
  8
0
  6
CONTINUOUS
 62
     7
100
AcDbTrace
 10
6.2763313201
 20
27.5984131964
 30
0.0
 11
6.4638313201
 21
27.5671631964
 31
0.0
 12
6.4638313201
 22
27.6296631964
 32
0.0
 13
6.4638313201
 23
27.6296631964
 33
0.0
  0
SOLID
  5
7D
330
79
100
AcDbEntity
  8
0
  6
CONTINUOUS
 62
     7
100
AcDbTrace
 10
20.8051988336
 20
27.5984131964
 30
0.0
 11
20.6176988336
 21
27.6296631964
 31
0.0
 12
20.6176988336
 22
27.5671631964
 32
0.0
 13
20.6176988336
 23
27.5671631964
 33
0.0
  0
LINE
  5
7E
330
79
100
AcDbEntity
  8
0
  6
CONTINUOUS
 62
     7
100
AcDbLine
 10
6.2763313201
 20
25.280785603
 30
0.0
 11
6.2763313201
 21
27.7234131964
 31
0.0
  0
LINE
  5
7F
330
79
100
AcDbEntity
  8
0
  6
CONTINUOUS
 62
     7
100
AcDbLine
 10
20.8051988336
 20
25.280785603
 30
0.0
 11
20.8051988336
 21
27.7234131964
 31
0.0
  0
LINE
  5
80
330
79
100
AcDbEntity
  8
0
  6
CONTINUOUS
 62
     7
100
AcDbLine
 10
6.2763313201
 20
27.5984131964
 30
0.0
 11
14.0814556962
 21
27.5984131964
 31
0.0
  0
LINE
  5
81
330
79
100
AcDbEntity
  8
0
  6
CONTINUOUS
 62
     7
100
AcDbLine
 10
20.8051988336
 20
27.5984131964
 30
0.0
 11
15.1758860759
 21
27.5984131964
 31
0.0
  0
MTEXT
  5
82
330
79
100
AcDbEntity
  8
0
  6
CONTINUOUS
 62
     7
100
AcDbMText
 10
14.1439556962
 20
27.7428254736
 30
0.0
 40
0.2916666667
 41
0.0
 71
     1
 72
     1
  1
14.53
  7
SLDTEXTSTYLE0
  0
ENDBLK
  5
7B
330
79
100
AcDbEntity
  8
0
100
AcDbBlockEnd
  0
BLOCK
  5
85
330
84
100
AcDbEntity
  8
0
100
AcDbBlockBegin
  2
*D2
 70
     1
 10
0.0
 20
0.0
 30
0.0
  3
*D2
  1

  0
SOLID
  5
87
330
84
100
AcDbEntity
  8
0
  6
CONTINUOUS
 62
     7
100
AcDbTrace
 10
20.8051988336
 20
27.5984131964
 30
0.0
 11
20.9926988336
 21
27.5671631964
 31
0.0
 12
20.9926988336
 22
27.6296631964
 32
0.0
 13
20.9926988336
 23
27.6296631964
 33
0.0
  0
SOLID
  5
88
330
84
100
AcDbEntity
  8
0
  6
CONTINUOUS
 62
     7
100
AcDbTrace
 10
35.334066347
 20
27.5984131964
 30
0.0
 11
35.146566347
 21
27.6296631964
 31
0.0
 12
35.146566347
 22
27.5671631964
 32
0.0
 13
35.146566347
 23
27.5671631964
 33
0.0
  0
LINE
  5
89
330
84
100
AcDbEntity
  8
0
  6
CONTINUOUS
 62
     7
100
AcDbLine
 10
20.8051988336
 20
25.280785603
 30
0.0
 11
20.8051988336
 21
27.7234131964
 31
0.0
  0
LINE
  5
8A
330
84
100
AcDbEntity
  8
0
  6
CONTINUOUS
 62
     7
100
AcDbLine
 10
35.334066347
 20
25.280785603
 30
0.0
 11
35.334066347
 21
27.7234131964
 31
0.0
  0
LINE
  5
8B
330
84
100
AcDbEntity
  8
0
  6
CONTINUOUS
 62
     7
100
AcDbLine
 10
20.8051988336
 20
27.5984131964
 30
0.0
 11
28.5426336146
 21
27.5984131964
 31
0.0
  0
LINE
  5
8C
330
84
100
AcDbEntity
  8
0
  6
CONTINUOUS
 62
     7
100
AcDbLine
 10
35.334066347
 20
27.5984131964
 30
0.0
 11
29.6370639944
 21
27.5984131964
 31
0.0
  0
MTEXT
  5
8D
330
84
100
AcDbEntity
  8
0
  6
CONTINUOUS
 62
     7
100
AcDbMText
 10
28.6051336146
 20
27.7428254736
 30
0.0
 40
0.2916666667
 41
0.0
 71
     1
 72
     1
  1
14.53
  7
SLDTEXTSTYLE0
  0
ENDBLK
  5
86
330
84
100
AcDbEntity
  8
0
100
AcDbBlockEnd
  0
BLOCK
  5
90
330
8F
100
AcDbEntity
  8
0
100
AcDbBlockBegin
  2
*D3
 70
     1
 10
0.0
 20
0.0
 30
0.0
  3
*D3
  1

  0
SOLID
  5
92
330
8F
100
AcDbEntity
  8
0
  6
CONTINUOUS
 62
     7
100
AcDbTrace
 10
39.3552372475
 20
23.4325805223
 30
0.0
 11
39.3239872475
 21
23.2450805223
 31
0.0
 12
39.3864872475
 22
23.2450805223
 32
0.0
 13
39.3864872475
 23
23.2450805223
 33
0.0
  0
SOLID
  5
93
330
8F
100
AcDbEntity
  8
0
  6
CONTINUOUS
 62
     7
100
AcDbTrace
 10
39.3552372475
 20
7.4522233268
 30
0.0
 11
39.3864872475
 21
7.6397233268
 31
0.0
 12
39.3239872475
 22
7.6397233268
 32
0.0
 13
39.3239872475
 23
7.6397233268
 33
0.0
  0
LINE
  5
94
330
8F
100
AcDbEntity
  8
0
  6
CONTINUOUS
 62
     7
100
AcDbLine
 10
31.3551988336
 20
23.4325805223
 30
0.0
 11
39.4802372475
 21
23.4325805223
 31
0.0
  0
LINE
  5
95
330
8F
100
AcDbEntity
  8
0
  6
CONTINUOUS
 62
     7
100
AcDbLine
 10
34.9608612663
 20
7.4522233268
 30
0.0
 11
39.4802372475
 21
7.4522233268
 31
0.0
  0
LINE
  5
96
330
8F
100
AcDbEntity
  8
0
  6
CONTINUOUS
 62
     7
100
AcDbLine
 10
39.3552372475
 20
23.4325805223
 30
0.0
 11
39.3552372475
 21
14.3049835443
 31
0.0
  0
LINE
  5
97
330
8F
100
AcDbEntity
  8
0
  6
CONTINUOUS
 62
     7
100
AcDbLine
 10
39.3552372475
 20
7.4522233268
 30
0.0
 11
39.3552372475
 21
13.8418518987
 31
0.0
  0
MTEXT
  5
98
330
8F
100
AcDbEntity
  8
0
  6
CONTINUOUS
 62
     7
100
AcDbMText
 10
38.8705220576
 20
14.2178299987
 30
0.0
 40
0.2916666667
 41
0.0
 71
     1
 72
     1
  1
15.98
  7
SLDTEXTSTYLE0
  0
ENDBLK
  5
91
330
8F
100
AcDbEntity
  8
0
100
AcDbBlockEnd
  0
BLOCK
  5
9B
330
9A
100
AcDbEntity
  8
0
100
AcDbBlockBegin
  2
*D4
 70
     1
 10
0.0
 20
0.0
 30
0.0
  3
*D4
  1

  0
SOLID
  5
9D
330
9A
100
AcDbEntity
  8
0
  6
CONTINUOUS
 62
     7
100
AcDbTrace
 10
35.0358612663
 20
4.7304229827
 30
0.0
 11
34.8483612663
 21
4.7616729827
 31
0.0
 12
34.8483612663
 22
4.6991729827
 32
0.0
 13
34.8483612663
 23
4.6991729827
 33
0.0
  0
SOLID
  5
9E
330
9A
100
AcDbEntity
  8
0
  6
CONTINUOUS
 62
     7
100
AcDbTrace
 10
6.5555040708
 20
4.7304229827
 30
0.0
 11
6.7430040708
 21
4.6991729827
 31
0.0
 12
6.7430040708
 22
4.7616729827
 32
0.0
 13
6.7430040708
 23
4.7616729827
 33
0.0
  0
LINE
  5
9F
330
9A
100
AcDbEntity
  8
0
  6
CONTINUOUS
 62
     7
100
AcDbLine
 10
35.0358612663
 20
7.5272233268
 30
0.0
 11
35.0358612663
 21
4.6054229827
 31
0.0
  0
LINE
  5
A0
330
9A
100
AcDbEntity
  8
0
  6
CONTINUOUS
 62
     7
100
AcDbLine
 10
6.5555040708
 20
7.5272233268
 30
0.0
 11
6.5555040708
 21
4.6054229827
 31
0.0
  0
LINE
  5
A1
330
9A
100
AcDbEntity
  8
0
  6
CONTINUOUS
 62
     7
100
AcDbLine
 10
35.0358612663
 20
4.7304229827
 30
0.0
 11
21.8645659222
 21
4.7304229827
 31
0.0
  0
LINE
  5
A2
330
9A
100
AcDbEntity
  8
0
  6
CONTINUOUS
 62
     7
100
AcDbLine
 10
6.5555040708
 20
4.7304229827
 30
0.0
 11
20.7701355424
 21
4.7304229827
 31
0.0
  0
MTEXT
  5
A3
330
9A
100
AcDbEntity
  8
0
  6
CONTINUOUS
 62
     7
100
AcDbMText
 10
20.8326355424
 20
4.8748352599
 30
0.0
 40
0.2916666667
 41
0.0
 71
     1
 72
     1
  1
28.48
  7
SLDTEXTSTYLE0
  0
ENDBLK
  5
9C
330
9A
100
AcDbEntity
  8
0
100
AcDbBlockEnd
  0
BLOCK
  5
A7
330
A6
100
AcDbEntity
  8
0
100
AcDbBlockBegin
  2
*D5
 70
     1
 10
0.0
 20
0.0
 30
0.0
  3
*D5
  1

  0
SOLID
  5
A9
330
A6
100
AcDbEntity
  8
0
  6
CONTINUOUS
 62
     7
100
AcDbTrace
 10
34.9846409115
 20
7.4763195908
 30
0.0
 11
35.0700844454
 21
7.3065190754
 31
0.0
 12
35.1205363134
 22
7.3434088981
 32
0.0
 13
35.1205363134
 23
7.3434088981
 33
0.0
  0
LINE
  5
AA
330
A6
100
AcDbEntity
  8
0
  6
CONTINUOUS
 62
     7
100
AcDbLine
 10
34.9846409115
 20
7.4763195908
 30
0.0
 11
37.6821493365
 21
3.7871086009
 31
0.0
  0
LINE
  5
AB
330
A6
100
AcDbEntity
  8
0
  6
CONTINUOUS
 62
     7
100
AcDbLine
 10
37.6821493365
 20
3.7871086009
 30
0.0
 11
38.1545902814
 21
3.7871086009
 31
0.0
  0
MTEXT
  5
AC
330
A6
100
AcDbEntity
  8
0
  6
CONTINUOUS
 62
     7
100
AcDbMText
 10
38.2170902814
 20
3.931520878
 30
0.0
 40
0.2916666667
 41
0.0
 71
     1
 72
     1
  1
R
  7
SLDTEXTSTYLE0
  0
MTEXT
  5
AD
330
A6
100
AcDbEntity
  8
0
  6
CONTINUOUS
 62
     7
100
AcDbMText
 10
38.4530459776
 20
3.931520878
 30
0.0
 40
0.2916666667
 41
0.0
 71
     1
 72
     1
  1
.13
  7
SLDTEXTSTYLE0
  0
ENDBLK
  5
A8
330
A6
100
AcDbEntity
  8
0
100
AcDbBlockEnd
  0
BLOCK
  5
B0
330
AF
100
AcDbEntity
  8
0
100
AcDbBlockBegin
  2
*D6
 70
     1
 10
0.0
 20
0.0
 30
0.0
  3
*D6
  1

  0
SOLID
  5
B2
330
AF
100
AcDbEntity
  8
0
  6
CONTINUOUS
 62
     7
100
AcDbTrace
 10
34.5357863399
 20
21.5677011827
 30
0.0
 11
34.713781774
 21
21.6344127855
 31
0.0
 12
34.6825242037
 22
21.6885350018
 32
0.0
 13
34.6825242037
 23
21.6885350018
 33
0.0
  0
LINE
  5
B3
330
AF
100
AcDbEntity
  8
0
  6
CONTINUOUS
 62
     7
100
AcDbLine
 10
34.5357863399
 20
21.5677011827
 30
0.0
 11
36.9229911712
 21
22.9463997647
 31
0.0
  0
LINE
  5
B4
330
AF
100
AcDbEntity
  8
0
  6
CONTINUOUS
 62
     7
100
AcDbLine
 10
36.9229911712
 20
22.9463997647
 30
0.0
 11
37.3954321161
 21
22.9463997647
 31
0.0
  0
MTEXT
  5
B5
330
AF
100
AcDbEntity
  8
0
  6
CONTINUOUS
 62
     7
100
AcDbMText
 10
37.4579321161
 20
23.0908120419
 30
0.0
 40
0.2916666667
 41
0.0
 71
     1
 72
     1
  1
R
  7
SLDTEXTSTYLE0
  0
MTEXT
  5
B6
330
AF
100
AcDbEntity
  8
0
  6
CONTINUOUS
 62
     7
100
AcDbMText
 10
37.6938878123
 20
23.0908120419
 30
0.0
 40
0.2916666667
 41
0.0
 71
     1
 72
     1
  1
3.73
  7
SLDTEXTSTYLE0
  0
ENDBLK
  5
B1
330
AF
100
AcDbEntity
  8
0
100
AcDbBlockEnd
  0
BLOCK
  5
BA
330
B9
100
AcDbEntity
  8
0
100
AcDbBlockBegin
  2
*D7
 70
     1
 10
0.0
 20
0.0
 30
0.0
  3
*D7
  1

  0
SOLID
  5
BC
330
B9
100
AcDbEntity
  8
0
  6
CONTINUOUS
 62
     7
100
AcDbTrace
 10
37.2182278481
 20
23.4325805223
 30
0.0
 11
37.2494778481
 21
23.6200805223
 31
0.0
 12
37.1869778481
 22
23.6200805223
 32
0.0
 13
37.1869778481
 23
23.6200805223
 33
0.0
  0
SOLID
  5
BD
330
B9
100
AcDbEntity
  8
0
  6
CONTINUOUS
 62
     7
100
AcDbTrace
 10
37.2182278481
 20
25.230785603
 30
0.0
 11
37.1869778481
 21
25.043285603
 31
0.0
 12
37.2494778481
 22
25.043285603
 32
0.0
 13
37.2494778481
 23
25.043285603
 33
0.0
  0
LINE
  5
BE
330
B9
100
AcDbEntity
  8
0
  6
CONTINUOUS
 62
     7
100
AcDbLine
 10
31.3551988336
 20
23.4325805223
 30
0.0
 11
37.3432278481
 21
23.4325805223
 31
0.0
  0
LINE
  5
BF
330
B9
100
AcDbEntity
  8
0
  6
CONTINUOUS
 62
     7
100
AcDbLine
 10
35.384066347
 20
25.230785603
 30
0.0
 11
37.3432278481
 21
25.230785603
 31
0.0
  0
LINE
  5
C0
330
B9
100
AcDbEntity
  8
0
  6
CONTINUOUS
 62
     7
100
AcDbLine
 10
37.2182278481
 20
23.4325805223
 30
0.0
 11
37.2182278481
 21
24.1580544304
 31
0.0
  0
LINE
  5
C1
330
B9
100
AcDbEntity
  8
0
  6
CONTINUOUS
 62
     7
100
AcDbLine
 10
37.2182278481
 20
25.230785603
 30
0.0
 11
37.2182278481
 21
24.6211860759
 31
0.0
  0
MTEXT
  5
C2
330
B9
100
AcDbEntity
  8
0
  6
CONTINUOUS
 62
     7
100
AcDbMText
 10
36.8412474684
 20
24.5340325303
 30
0.0
 40
0.2916666667
 41
0.0
 71
     1
 72
     1
  1
1.80
  7
SLDTEXTSTYLE0
  0
ENDBLK
  5
BB
330
B9
100
AcDbEntity
  8
0
100
AcDbBlockEnd
  0
BLOCK
  5
C5
330
C4
100
AcDbEntity
  8
0
100
AcDbBlockBegin
  2
*D8
 70
     1
 10
0.0
 20
0.0
 30
0.0
  3
*D8
  1

  0
SOLID
  5
C7
330
C4
100
AcDbEntity
  8
0
  6
CONTINUOUS
 62
     7
100
AcDbTrace
 10
35.0358612663
 20
28.7795155586
 30
0.0
 11
34.8483612663
 21
28.8107655586
 31
0.0
 12
34.8483612663
 22
28.7482655586
 32
0.0
 13
34.8483612663
 23
28.7482655586
 33
0.0
  0
SOLID
  5
C8
330
C4
100
AcDbEntity
  8
0
  6
CONTINUOUS
 62
     7
100
AcDbTrace
 10
20.8051988336
 20
28.7795155586
 30
0.0
 11
20.9926988336
 21
28.7482655586
 31
0.0
 12
20.9926988336
 22
28.8107655586
 32
0.0
 13
20.9926988336
 23
28.8107655586
 33
0.0
  0
LINE
  5
C9
330
C4
100
AcDbEntity
  8
0
  6
CONTINUOUS
 62
     7
100
AcDbLine
 10
35.0358612663
 20
19.7519180896
 30
0.0
 11
35.0358612663
 21
28.9045155586
 31
0.0
  0
LINE
  5
CA
330
C4
100
AcDbEntity
  8
0
  6
CONTINUOUS
 62
     7
100
AcDbLine
 10
20.8051988336
 20
25.280785603
 30
0.0
 11
20.8051988336
 21
28.9045155586
 31
0.0
  0
LINE
  5
CB
330
C4
100
AcDbEntity
  8
0
  6
CONTINUOUS
 62
     7
100
AcDbLine
 10
35.0358612663
 20
28.7795155586
 30
0.0
 11
27.4675316456
 21
28.7795155586
 31
0.0
  0
LINE
  5
CC
330
C4
100
AcDbEntity
  8
0
  6
CONTINUOUS
 62
     7
100
AcDbLine
 10
20.8051988336
 20
28.7795155586
 30
0.0
 11
26.3731012658
 21
28.7795155586
 31
0.0
  0
MTEXT
  5
CD
330
C4
100
AcDbEntity
  8
0
  6
CONTINUOUS
 62
     7
100
AcDbMText
 10
26.4356012658
 20
28.9239278358
 30
0.0
 40
0.2916666667
 41
0.0
 71
     1
 72
     1
  1
14.23
  7
SLDTEXTSTYLE0
  0
ENDBLK
  5
C6
330
C4
100
AcDbEntity
  8
0
100
AcDbBlockEnd
  0
BLOCK
  5
D0
330
CF
100
AcDbEntity
  8
0
100
AcDbBlockBegin
  2
*D9
 70
     1
 10
0.0
 20
0.0
 30
0.0
  3
*D9
  1

  0
SOLID
  5
D2
330
CF
100
AcDbEntity
  8
0
  6
CONTINUOUS
 62
     7
100
AcDbTrace
 10
24.8051988336
 20
26.9066842475
 30
0.0
 11
24.6176988336
 21
26.9379342475
 31
0.0
 12
24.6176988336
 22
26.8754342475
 32
0.0
 13
24.6176988336
 23
26.8754342475
 33
0.0
  0
SOLID
  5
D3
330
CF
100
AcDbEntity
  8
0
  6
CONTINUOUS
 62
     7
100
AcDbTrace
 10
20.8051988336
 20
26.9066842475
 30
0.0
 11
20.9926988336
 21
26.8754342475
 31
0.0
 12
20.9926988336
 22
26.9379342475
 32
0.0
 13
20.9926988336
 23
26.9379342475
 33
0.0
  0
LINE
  5
D4
330
CF
100
AcDbEntity
  8
0
  6
CONTINUOUS
 62
     7
100
AcDbLine
 10
24.8051988336
 20
25.280785603
 30
0.0
 11
24.8051988336
 21
27.0316842475
 31
0.0
  0
LINE
  5
D5
330
CF
100
AcDbEntity
  8
0
  6
CONTINUOUS
 62
     7
100
AcDbLine
 10
20.8051988336
 20
25.280785603
 30
0.0
 11
20.8051988336
 21
27.0316842475
 31
0.0
  0
LINE
  5
D6
330
CF
100
AcDbEntity
  8
0
  6
CONTINUOUS
 62
     7
100
AcDbLine
 10
24.8051988336
 20
26.9066842475
 30
0.0
 11
23.2514037271
 21
26.9066842475
 31
0.0
  0
LINE
  5
D7
330
CF
100
AcDbEntity
  8
0
  6
CONTINUOUS
 62
     7
100
AcDbLine
 10
20.8051988336
 20
26.9066842475
 30
0.0
 11
22.3724429677
 21
26.9066842475
 31
0.0
  0
MTEXT
  5
D8
330
CF
100
AcDbEntity
  8
0
  6
CONTINUOUS
 62
     7
100
AcDbMText
 10
22.4349429677
 20
27.0510965247
 30
0.0
 40
0.2916666667
 41
0.0
 71
     1
 72
     1
  1
4.00
  7
SLDTEXTSTYLE0
  0
ENDBLK
  5
D1
330
CF
100
AcDbEntity
  8
0
100
AcDbBlockEnd
  0
BLOCK
  5
DB
330
DA
100
AcDbEntity
  8
0
100
AcDbBlockBegin
  2
*D10
 70
     1
 10
0.0
 20
0.0
 30
0.0
  3
*D10
  1

  0
SOLID
  5
DD
330
DA
100
AcDbEntity
  8
0
  6
CONTINUOUS
 62
     7
100
AcDbTrace
 10
24.8051988336
 20
26.9066842475
 30
0.0
 11
24.9926988336
 21
26.8754342475
 31
0.0
 12
24.9926988336
 22
26.9379342475
 32
0.0
 13
24.9926988336
 23
26.9379342475
 33
0.0
  0
SOLID
  5
DE
330
DA
100
AcDbEntity
  8
0
  6
CONTINUOUS
 62
     7
100
AcDbTrace
 10
28.8051988336
 20
26.9066842475
 30
0.0
 11
28.6176988336
 21
26.9379342475
 31
0.0
 12
28.6176988336
 22
26.8754342475
 32
0.0
 13
28.6176988336
 23
26.8754342475
 33
0.0
  0
LINE
  5
DF
330
DA
100
AcDbEntity
  8
0
  6
CONTINUOUS
 62
     7
100
AcDbLine
 10
24.8051988336
 20
25.280785603
 30
0.0
 11
24.8051988336
 21
27.0316842475
 31
0.0
  0
LINE
  5
E0
330
DA
100
AcDbEntity
  8
0
  6
CONTINUOUS
 62
     7
100
AcDbLine
 10
28.8051988336
 20
25.280785603
 30
0.0
 11
28.8051988336
 21
27.0316842475
 31
0.0
  0
LINE
  5
E1
330
DA
100
AcDbEntity
  8
0
  6
CONTINUOUS
 62
     7
100
AcDbLine
 10
24.8051988336
 20
26.9066842475
 30
0.0
 11
26.4808360759
 21
26.9066842475
 31
0.0
  0
LINE
  5
E2
330
DA
100
AcDbEntity
  8
0
  6
CONTINUOUS
 62
     7
100
AcDbLine
 10
28.8051988336
 20
26.9066842475
 30
0.0
 11
27.3597968354
 21
26.9066842475
 31
0.0
  0
MTEXT
  5
E3
330
DA
100
AcDbEntity
  8
0
  6
CONTINUOUS
 62
     7
100
AcDbMText
 10
26.5433360759
 20
27.0510965247
 30
0.0
 40
0.2916666667
 41
0.0
 71
     1
 72
     1
  1
4.00
  7
SLDTEXTSTYLE0
  0
ENDBLK
  5
DC
330
DA
100
AcDbEntity
  8
0
100
AcDbBlockEnd
  0
BLOCK
  5
E6
330
E5
100
AcDbEntity
  8
0
100
AcDbBlockBegin
  2
*D11
 70
     1
 10
0.0
 20
0.0
 30
0.0
  3
*D11
  1

  0
SOLID
  5
E8
330
E5
100
AcDbEntity
  8
0
  6
CONTINUOUS
 62
     7
100
AcDbTrace
 10
16.8051988336
 20
26.9066842475
 30
0.0
 11
16.9926988336
 21
26.8754342475
 31
0.0
 12
16.9926988336
 22
26.9379342475
 32
0.0
 13
16.9926988336
 23
26.9379342475
 33
0.0
  0
SOLID
  5
E9
330
E5
100
AcDbEntity
  8
0
  6
CONTINUOUS
 62
     7
100
AcDbTrace
 10
20.8051988336
 20
26.9066842475
 30
0.0
 11
20.6176988336
 21
26.9379342475
 31
0.0
 12
20.6176988336
 22
26.8754342475
 32
0.0
 13
20.6176988336
 23
26.8754342475
 33
0.0
  0
LINE
  5
EA
330
E5
100
AcDbEntity
  8
0
  6
CONTINUOUS
 62
     7
100
AcDbLine
 10
16.8051988336
 20
25.280785603
 30
0.0
 11
16.8051988336
 21
27.0316842475
 31
0.0
  0
LINE
  5
EB
330
E5
100
AcDbEntity
  8
0
  6
CONTINUOUS
 62
     7
100
AcDbLine
 10
20.8051988336
 20
25.280785603
 30
0.0
 11
20.8051988336
 21
27.0316842475
 31
0.0
  0
LINE
  5
EC
330
E5
100
AcDbEntity
  8
0
  6
CONTINUOUS
 62
     7
100
AcDbLine
 10
16.8051988336
 20
26.9066842475
 30
0.0
 11
18.4906567511
 21
26.9066842475
 31
0.0
  0
LINE
  5
ED
330
E5
100
AcDbEntity
  8
0
  6
CONTINUOUS
 62
     7
100
AcDbLine
 10
20.8051988336
 20
26.9066842475
 30
0.0
 11
19.3696175105
 21
26.9066842475
 31
0.0
  0
MTEXT
  5
EE
330
E5
100
AcDbEntity
  8
0
  6
CONTINUOUS
 62
     7
100
AcDbMText
 10
18.5531567511
 20
27.0510965247
 30
0.0
 40
0.2916666667
 41
0.0
 71
     1
 72
     1
  1
4.00
  7
SLDTEXTSTYLE0
  0
ENDBLK
  5
E7
330
E5
100
AcDbEntity
  8
0
100
AcDbBlockEnd
  0
ENDSEC
  0
SECTION
  2
ENTITIES
  0
ARC
  5
45
330
1F
100
AcDbEntity
  8
0
  6
CONTINUOUS
 62
     7
100
AcDbCircle
 10
31.3051988336
 20
19.7019180896
 30
0.0
 40
3.730662432702598
100
AcDbArc
 50
0.0
 51
90.0
  0
ARC
  5
46
330
1F
100
AcDbEntity
  8
0
  6
CONTINUOUS
 62
     7
100
AcDbCircle
 10
34.9108612663
 20
7.5772233268
 30
0.0
 40
0.1250000000000071
100
AcDbArc
 50
270.0
 51
0.0
  0
ARC
  5
47
330
1F
100
AcDbEntity
  8
0
  6
CONTINUOUS
 62
     7
100
AcDbCircle
 10
6.6805040708
 20
7.5772233268
 30
0.0
 40
0.1250000000000036
100
AcDbArc
 50
180.0
 51
270.0
  0
ARC
  5
48
330
1F
100
AcDbEntity
  8
0
  6
CONTINUOUS
 62
     7
100
AcDbCircle
 10
6.6805040708
 20
23.3075805223
 30
0.0
 40
0.1250000000000036
100
AcDbArc
 50
90.0
 51
180.0
  0
LINE
  5
49
330
1F
100
AcDbEntity
  8
0
  6
CONTINUOUS
 62
     7
100
AcDbLine
 10
6.6805040708
 20
7.4522233268
 30
0.0
 11
34.9108612663
 21
7.4522233268
 31
0.0
  0
LINE
  5
4A
330
1F
100
AcDbEntity
  8
0
  6
CONTINUOUS
 62
     7
100
AcDbLine
 10
6.5555040708
 20
7.5772233268
 30
0.0
 11
6.5555040708
 21
23.3075805223
 31
0.0
  0
LINE
  5
4B
330
1F
100
AcDbEntity
  8
0
  6
CONTINUOUS
 62
     7
100
AcDbLine
 10
35.0358612663
 20
7.5772233268
 30
0.0
 11
35.0358612663
 21
19.7019180896
 31
0.0
  0
LINE
  5
4C
330
1F
100
AcDbEntity
  8
0
  6
CONTINUOUS
 62
     7
100
AcDbLine
 10
6.6805040708
 20
23.4325805223
 30
0.0
 11
31.3051988336
 21
23.4325805223
 31
0.0
  0
POINT
  5
4D
330
1F
100
AcDbEntity
  8
0
  6
CONTINUOUS
 62
     7
100
AcDbPoint
 10
35.334066347
 20
25.230785603
 30
0.0
  0
POINT
  5
4E
330
1F
100
AcDbEntity
  8
0
  6
CONTINUOUS
 62
     7
100
AcDbPoint
 10
28.8051988336
 20
25.230785603
 30
0.0
  0
POINT
  5
4F
330
1F
100
AcDbEntity
  8
0
  6
CONTINUOUS
 62
     7
100
AcDbPoint
 10
24.8051988336
 20
25.230785603
 30
0.0
  0
POINT
  5
50
330
1F
100
AcDbEntity
  8
0
  6
CONTINUOUS
 62
     7
100
AcDbPoint
 10
20.8051988336
 20
25.230785603
 30
0.0
  0
POINT
  5
51
330
1F
100
AcDbEntity
  8
0
  6
CONTINUOUS
 62
     7
100
AcDbPoint
 10
16.8051988336
 20
25.230785603
 30
0.0
  0
POINT
  5
52
330
1F
100
AcDbEntity
  8
0
  6
CONTINUOUS
 62
     7
100
AcDbPoint
 10
6.2763313201
 20
25.230785603
 30
0.0
  0
LINE
  5
53
330
1F
100
AcDbEntity
  8
0
  6
CENTERX2
 62
     7
100
AcDbLine
 10
6.2763313201
 20
25.230785603
 30
0.0
 11
35.334066347
 21
25.230785603
 31
0.0
  0
DIMENSION
  5
54
330
1F
100
AcDbEntity
  8
0
  6
CONTINUOUS
 62
     7
100
AcDbDimension
  2
*D1
 10
20.8051988336
 20
27.5984131964
 30
0.0
 11
14.6286708861
 21
27.5984131964
 31
0.0
 70
   160
  3
SLDDIMSTYLE0
100
AcDbAlignedDimension
 13
6.2763313201
 23
25.230785603
 33
0.0
 14
20.8051988336
 24
25.230785603
 34
0.0
 50
0.0
100
AcDbRotatedDimension
  0
DIMENSION
  5
83
330
1F
100
AcDbEntity
  8
0
  6
CONTINUOUS
 62
     7
100
AcDbDimension
  2
*D2
 10
35.334066347
 20
27.5984131964
 30
0.0
 11
29.0898488045
 21
27.5984131964
 31
0.0
 70
   160
  3
SLDDIMSTYLE0
100
AcDbAlignedDimension
 13
20.8051988336
 23
25.230785603
 33
0.0
 14
35.334066347
 24
25.230785603
 34
0.0
 50
0.0
100
AcDbRotatedDimension
  0
DIMENSION
  5
8E
330
1F
100
AcDbEntity
  8
0
  6
CONTINUOUS
 62
     7
100
AcDbDimension
  2
*D3
 10
39.3552372475
 20
7.4522233268
 30
0.0
 11
39.3552372475
 21
14.0734177215
 31
0.0
 70
   160
  3
SLDDIMSTYLE0
100
AcDbAlignedDimension
 13
31.3051988336
 23
23.4325805223
 33
0.0
 14
34.9108612663
 24
7.4522233268
 34
0.0
 50
90.0
100
AcDbRotatedDimension
  0
DIMENSION
  5
99
330
1F
100
AcDbEntity
  8
0
  6
CONTINUOUS
 62
     7
100
AcDbDimension
  2
*D4
 10
6.5555040708
 20
4.7304229827
 30
0.0
 11
21.3173507323
 21
4.7304229827
 31
0.0
 70
   160
  3
SLDDIMSTYLE0
100
AcDbAlignedDimension
 13
35.0358612663
 23
7.5772233268
 33
0.0
 14
6.5555040708
 24
7.5772233268
 34
0.0
 50
0.0
100
AcDbRotatedDimension
  0
DIMENSION
  5
A4
330
1F
100
AcDbEntity
  8
0
  6
CONTINUOUS
 62
     7
100
AcDbDimension
  2
*D5
 10
34.9108612663
 20
7.5772233268
 30
0.0
 11
38.6043136991
 21
3.7871086009
 31
0.0
 70
   164
  1
<>
  3
SLDDIMSTYLE1
100
AcDbRadialDimension
 15
34.9846409115
 25
7.4763195908
 35
0.0
 40
0.0
  0
DIMENSION
  5
AE
330
1F
100
AcDbEntity
  8
0
  6
CONTINUOUS
 62
     7
100
AcDbDimension
  2
*D6
 10
31.3051988336
 20
19.7019180896
 30
0.0
 11
37.9528903439
 21
22.9463997647
 31
0.0
 70
   164
  1
<>
  3
SLDDIMSTYLE1
100
AcDbRadialDimension
 15
34.5357863399
 25
21.5677011827
 35
0.0
 40
0.0
  0
DIMENSION
  5
B7
330
1F
100
AcDbEntity
  8
0
  6
CONTINUOUS
 62
     7
100
AcDbDimension
  2
*D7
 10
37.2182278481
 20
25.230785603
 30
0.0
 11
37.2182278481
 21
24.3896202532
 31
0.0
 70
   160
  3
SLDDIMSTYLE2
100
AcDbAlignedDimension
 13
31.3051988336
 23
23.4325805223
 33
0.0
 14
35.334066347
 24
25.230785603
 34
0.0
 50
90.0
100
AcDbRotatedDimension
  0
DIMENSION
  5
C3
330
1F
100
AcDbEntity
  8
0
  6
CONTINUOUS
 62
     7
100
AcDbDimension
  2
*D8
 10
20.8051988336
 20
28.7795155586
 30
0.0
 11
26.9203164557
 21
28.7795155586
 31
0.0
 70
   160
  3
SLDDIMSTYLE0
100
AcDbAlignedDimension
 13
35.0358612663
 23
19.7019180896
 33
0.0
 14
20.8051988336
 24
25.230785603
 34
0.0
100
AcDbRotatedDimension
  0
DIMENSION
  5
CE
330
1F
100
AcDbEntity
  8
0
  6
CONTINUOUS
 62
     7
100
AcDbDimension
  2
*D9
 10
20.8051988336
 20
26.9066842475
 30
0.0
 11
22.8119233474
 21
26.9066842475
 31
0.0
 70
   160
  3
SLDDIMSTYLE2
100
AcDbAlignedDimension
 13
24.8051988336
 23
25.230785603
 33
0.0
 14
20.8051988336
 24
25.230785603
 34
0.0
100
AcDbRotatedDimension
  0
DIMENSION
  5
D9
330
1F
100
AcDbEntity
  8
0
  6
CONTINUOUS
 62
     7
100
AcDbDimension
  2
*D10
 10
28.8051988336
 20
26.9066842475
 30
0.0
 11
26.9203164557
 21
26.9066842475
 31
0.0
 70
   160
  3
SLDDIMSTYLE2
100
AcDbAlignedDimension
 13
24.8051988336
 23
25.230785603
 33
0.0
 14
28.8051988336
 24
25.230785603
 34
0.0
100
AcDbRotatedDimension
  0
DIMENSION
  5
E4
330
1F
100
AcDbEntity
  8
0
  6
CONTINUOUS
 62
     7
100
AcDbDimension
  2
*D11
 10
20.8051988336
 20
26.9066842475
 30
0.0
 11
18.9301371308
 21
26.9066842475
 31
0.0
 70
   160
  3
SLDDIMSTYLE2
100
AcDbAlignedDimension
 13
16.8051988336
 23
25.230785603
 33
0.0
 14
20.8051988336
 24
25.230785603
 34
0.0
100
AcDbRotatedDimension
  0
MTEXT
  5
EF
330
1F
100
AcDbEntity
  8
0
  6
CONTINUOUS
 62
     7
100
AcDbMText
 10
14.2855328928
 20
11.7637528731
 30
0.0
 40
0.75
 41
0.0
 71
     1
 72
     1
  1
UNDERMOUNT SINK CUTOUT
  7
SLDTEXTSTYLE0
  0
ENDSEC
  0
SECTION
  2
OBJECTS
  0
DICTIONARY
  5
C
330
0
100
AcDbDictionary
  3
ACAD_GROUP
350
D
  3
ACAD_MLINESTYLE
350
17
  3
ACAD_SCALELIST
350
55
  3
ACDBVARIABLEDICTIONARY
350
F0
1001
ACAD
1000
TREAT_AS_HARD
1070
     0
  0
DICTIONARY
  5
D
102
{ACAD_REACTORS
330
C
102
}
330
C
100
AcDbDictionary
1001
ACAD
1000
TREAT_AS_HARD
1070
     0
  0
DICTIONARY
  5
17
102
{ACAD_REACTORS
330
C
102
}
330
C
100
AcDbDictionary
  3
STANDARD
350
18
1001
ACAD
1000
TREAT_AS_HARD
1070
     0
  0
DICTIONARY
  5
55
102
{ACAD_REACTORS
330
C
102
}
330
C
100
AcDbDictionary
1001
ACAD
1000
TREAT_AS_HARD
1070
     0
  0
DICTIONARY
  5
F0
102
{ACAD_REACTORS
330
C
102
}
330
C
100
AcDbDictionary
  3
CANNOSCALE
350
F1
1001
ACAD
1000
TREAT_AS_HARD
1070
     0
  0
MLINESTYLE
  5
18
102
{ACAD_REACTORS
330
17
102
}
330
17
100
AcDbMlineStyle
  2
Standard
 70
     0
  3

 62
   256
 51
90.0
 52
90.0
 71
     2
 49
0.5
 62
   256
  6
BYLAYER
 49
-0.5
 62
   256
  6
BYLAYER
  0
DICTIONARYVAR
  5
F1
102
{ACAD_REACTORS
330
F0
102
}
330
F0
100
DictionaryVariables
280
     0
  1
1:1
  0
ENDSEC
  0
EOF
