  0
SECTION
  2
HEADER
  9
$ACADVER
  1
AC1014
  9
$ACADMAINTVER
 70
     9
  9
$DWGCODEPAGE
  3
ANSI_1252
  9
$INSBASE
 10
0.0
 20
0.0
 30
0.0
  9
$EXTMIN
 10
-9.71907001872222
 20
-9.885387420654297
 30
-0.5
  9
$EXTMAX
 10
10.3735
 20
9.329496622200015
 30
4.568927212449145
  9
$LIMMIN
 10
0.0
 20
0.0
  9
$LIMMAX
 10
12.0
 20
9.0
  9
$ORTHOMODE
 70
     0
  9
$REGENMODE
 70
     1
  9
$FILLMODE
 70
     1
  9
$QTEXTMODE
 70
     0
  9
$MIRRTEXT
 70
     1
  9
$DRAGMODE
 70
     2
  9
$LTSCALE
 40
1.0
  9
$OSMODE
 70
    37
  9
$ATTMODE
 70
     1
  9
$TEXTSIZE
 40
0.2
  9
$TRACEWID
 40
0.05
  9
$TEXTSTYLE
  7
STANDARD
  9
$CLAYER
  8
0
  9
$CELTYPE
  6
BYLAYER
  9
$CECOLOR
 62
   256
  9
$CELTSCALE
 40
1.0
  9
$DELOBJ
 70
     1
  9
$DISPSILH
 70
     0
  9
$DIMSCALE
 40
1.0
  9
$DIMASZ
 40
0.18
  9
$DIMEXO
 40
0.0625
  9
$DIMDLI
 40
0.38
  9
$DIMRND
 40
0.0
  9
$DIMDLE
 40
0.0
  9
$DIMEXE
 40
0.18
  9
$DIMTP
 40
0.0
  9
$DIMTM
 40
0.0
  9
$DIMTXT
 40
0.18
  9
$DIMCEN
 40
0.09
  9
$DIMTSZ
 40
0.0
  9
$DIMTOL
 70
     0
  9
$DIMLIM
 70
     0
  9
$DIMTIH
 70
     1
  9
$DIMTOH
 70
     1
  9
$DIMSE1
 70
     0
  9
$DIMSE2
 70
     0
  9
$DIMTAD
 70
     0
  9
$DIMZIN
 70
     0
  9
$DIMBLK
  1

  9
$DIMASO
 70
     1
  9
$DIMSHO
 70
     1
  9
$DIMPOST
  1

  9
$DIMAPOST
  1

  9
$DIMALT
 70
     0
  9
$DIMALTD
 70
     2
  9
$DIMALTF
 40
25.4
  9
$DIMLFAC
 40
1.0
  9
$DIMTOFL
 70
     0
  9
$DIMTVP
 40
0.0
  9
$DIMTIX
 70
     0
  9
$DIMSOXD
 70
     0
  9
$DIMSAH
 70
     0
  9
$DIMBLK1
  1

  9
$DIMBLK2
  1

  9
$DIMSTYLE
  2
STANDARD
  9
$DIMCLRD
 70
     0
  9
$DIMCLRE
 70
     0
  9
$DIMCLRT
 70
     0
  9
$DIMTFAC
 40
1.0
  9
$DIMGAP
 40
0.09
  9
$DIMJUST
 70
     0
  9
$DIMSD1
 70
     0
  9
$DIMSD2
 70
     0
  9
$DIMTOLJ
 70
     1
  9
$DIMTZIN
 70
     0
  9
$DIMALTZ
 70
     0
  9
$DIMALTTZ
 70
     0
  9
$DIMFIT
 70
     3
  9
$DIMUPT
 70
     0
  9
$DIMUNIT
 70
     2
  9
$DIMDEC
 70
     4
  9
$DIMTDEC
 70
     4
  9
$DIMALTU
 70
     2
  9
$DIMALTTD
 70
     2
  9
$DIMTXSTY
  7
STANDARD
  9
$DIMAUNIT
 70
     0
  9
$LUNITS
 70
     2
  9
$LUPREC
 70
     4
  9
$SKETCHINC
 40
0.1
  9
$FILLETRAD
 40
0.5
  9
$AUNITS
 70
     0
  9
$AUPREC
 70
     0
  9
$MENU
  1
.
  9
$ELEVATION
 40
0.0
  9
$PELEVATION
 40
0.0
  9
$THICKNESS
 40
0.0
  9
$LIMCHECK
 70
     0
  9
$CHAMFERA
 40
0.5
  9
$CHAMFERB
 40
0.5
  9
$CHAMFERC
 40
1.0
  9
$CHAMFERD
 40
0.0
  9
$SKPOLY
 70
     0
  9
$TDCREATE
 40
2305814.149016204
  9
$TDUPDATE
 40
2305814.149016215
  9
$TDINDWG
 40
0.0000000116
  9
$TDUSRTIMER
 40
0.0000000116
  9
$USRTIMER
 70
     1
  9
$ANGBASE
 50
0.0
  9
$ANGDIR
 70
     0
  9
$PDMODE
 70
     0
  9
$PDSIZE
 40
0.0
  9
$PLINEWID
 40
0.0
  9
$COORDS
 70
     1
  9
$SPLFRAME
 70
     0
  9
$SPLINETYPE
 70
     6
  9
$SPLINESEGS
 70
     8
  9
$ATTDIA
 70
     0
  9
$ATTREQ
 70
     1
  9
$HANDLING
 70
     1
  9
$HANDSEED
  5
166
  9
$SURFTAB1
 70
     6
  9
$SURFTAB2
 70
     6
  9
$SURFTYPE
 70
     6
  9
$SURFU
 70
     6
  9
$SURFV
 70
     6
  9
$UCSNAME
  2

  9
$UCSORG
 10
0.0
 20
0.0
 30
0.0
  9
$UCSXDIR
 10
1.0
 20
0.0
 30
0.0
  9
$UCSYDIR
 10
0.0
 20
1.0
 30
0.0
  9
$PUCSNAME
  2

  9
$PUCSORG
 10
0.0
 20
0.0
 30
0.0
  9
$PUCSXDIR
 10
1.0
 20
0.0
 30
0.0
  9
$PUCSYDIR
 10
0.0
 20
1.0
 30
0.0
  9
$USERI1
 70
     0
  9
$USERI2
 70
     0
  9
$USERI3
 70
     0
  9
$USERI4
 70
     0
  9
$USERI5
 70
     0
  9
$USERR1
 40
0.0
  9
$USERR2
 40
0.0
  9
$USERR3
 40
0.0
  9
$USERR4
 40
0.0
  9
$USERR5
 40
0.0
  9
$WORLDVIEW
 70
     1
  9
$SHADEDGE
 70
     3
  9
$SHADEDIF
 70
    70
  9
$TILEMODE
 70
     1
  9
$MAXACTVP
 70
    64
  9
$PINSBASE
 10
0.0
 20
0.0
 30
0.0
  9
$PLIMCHECK
 70
     0
  9
$PEXTMIN
 10
1.000000000000000E+20
 20
1.000000000000000E+20
 30
1.000000000000000E+20
  9
$PEXTMAX
 10
-1.000000000000000E+20
 20
-1.000000000000000E+20
 30
-1.000000000000000E+20
  9
$PLIMMIN
 10
0.0
 20
0.0
  9
$PLIMMAX
 10
12.0
 20
9.0
  9
$UNITMODE
 70
     0
  9
$VISRETAIN
 70
     1
  9
$PLINEGEN
 70
     0
  9
$PSLTSCALE
 70
     1
  9
$TREEDEPTH
 70
  3020
  9
$PICKSTYLE
 70
     1
  9
$CMLSTYLE
  2
STANDARD
  9
$CMLJUST
 70
     0
  9
$CMLSCALE
 40
1.0
  9
$PROXYGRAPHICS
 70
     1
  9
$MEASUREMENT
 70
     0
  0
ENDSEC
  0
SECTION
  2
CLASSES
  0
CLASS
  1
ACDBDICTIONARYWDFLT
  2
AcDbDictionaryWithDefault
  3
ObjectDBX Classes
 90
        0
280
     0
281
     0
  0
CLASS
  1
VISUALSTYLE
  2
AcDbVisualStyle
  3
ObjectDBX Classes
 90
     4095
280
     0
281
     0
  0
CLASS
  1
XRECORD
  2
AcDbXrecord
  3
AutoCAD 2000
 90
        0
280
     0
281
     0
  0
CLASS
  1
LWPOLYLINE
  2
AcDbPolyline
  3
AutoCAD 2000
 90
        0
280
     0
281
     1
  0
CLASS
  1
HATCH
  2
AcDbHatch
  3
AutoCAD 2000
 90
        0
280
     0
281
     1
  0
CLASS
  1
ACDBPLACEHOLDER
  2
AcDbPlaceHolder
  3
ObjectDBX Classes
 90
        0
280
     0
281
     0
  0
CLASS
  1
LAYOUT
  2
AcDbLayout
  3
ObjectDBX Classes
 90
        0
280
     0
281
     0
  0
ENDSEC
  0
SECTION
  2
TABLES
  0
TABLE
  2
VPORT
  5
8
330
0
100
AcDbSymbolTable
 70
     1
  0
VPORT
  5
29
330
8
100
AcDbSymbolTableRecord
100
AcDbViewportTableRecord
  2
*ACTIVE
 70
     0
 10
0.0
 20
0.0
 11
1.0
 21
1.0
 12
0.0
 22
0.0
 13
0.0
 23
0.0
 14
0.5
 24
0.5
 15
0.5
 25
0.5
 16
0.0
 26
0.0
 36
1.0
 17
2.461507459280948
 27
-0.2779451900499765
 37
0.0
 40
19.59918129699005
 41
1.285433161578289
 42
50.0
 43
0.0
 44
0.0
 50
0.0
 51
0.0
 71
     0
 72
   100
 73
     1
 74
     3
 75
     0
 76
     0
 77
     0
 78
     0
  0
ENDTAB
  0
TABLE
  2
LTYPE
  5
5
330
0
100
AcDbSymbolTable
 70
    75
  0
LTYPE
  5
14
330
5
100
AcDbSymbolTableRecord
100
AcDbLinetypeTableRecord
  2
BYBLOCK
 70
     0
  3

 72
    65
 73
     0
 40
0.0
  0
LTYPE
  5
15
330
5
100
AcDbSymbolTableRecord
100
AcDbLinetypeTableRecord
  2
BYLAYER
 70
     0
  3

 72
    65
 73
     0
 40
0.0
  0
LTYPE
  5
16
330
5
100
AcDbSymbolTableRecord
100
AcDbLinetypeTableRecord
  2
CONTINUOUS
 70
     0
  3
Solid line
 72
    65
 73
     0
 40
0.0
  0
LTYPE
  5
40
330
5
100
AcDbSymbolTableRecord
100
AcDbLinetypeTableRecord
  2
BORDER
 70
     0
  3
__ __ . __ __ . __ 
 72
    65
 73
     6
 40
0.875
 49
0.25
 74
     0
 49
-0.125
 74
     0
 49
0.25
 74
     0
 49
-0.125
 74
     0
 49
0.0
 74
     0
 49
-0.125
 74
     0
  0
LTYPE
  5
41
330
5
100
AcDbSymbolTableRecord
100
AcDbLinetypeTableRecord
  2
CENTER
 70
     0
  3
___ _ ___ _ ___ _ _
 72
    65
 73
     4
 40
1.125
 49
0.75
 74
     0
 49
-0.125
 74
     0
 49
0.125
 74
     0
 49
-0.125
 74
     0
  0
LTYPE
  5
42
330
5
100
AcDbSymbolTableRecord
100
AcDbLinetypeTableRecord
  2
DASHDOT
 70
     0
  3
_._._._._._._._._._
 72
    65
 73
     4
 40
0.5
 49
0.25
 74
     0
 49
-0.125
 74
     0
 49
0.0
 74
     0
 49
-0.125
 74
     0
  0
LTYPE
  5
43
330
5
100
AcDbSymbolTableRecord
100
AcDbLinetypeTableRecord
  2
DASHED
 70
     0
  3
_ _ _ _ _ _ _ _ _ _
 72
    65
 73
     2
 40
0.375
 49
0.25
 74
     0
 49
-0.125
 74
     0
  0
LTYPE
  5
44
330
5
100
AcDbSymbolTableRecord
100
AcDbLinetypeTableRecord
  2
DIVIDE
 70
     0
  3
__..__..__..__..__.
 72
    65
 73
     6
 40
0.625
 49
0.25
 74
     0
 49
-0.125
 74
     0
 49
0.0
 74
     0
 49
-0.125
 74
     0
 49
0.0
 74
     0
 49
-0.125
 74
     0
  0
LTYPE
  5
45
330
5
100
AcDbSymbolTableRecord
100
AcDbLinetypeTableRecord
  2
DOT
 70
     0
  3
...................
 72
    65
 73
     2
 40
0.125
 49
0.0
 74
     0
 49
-0.125
 74
     0
  0
LTYPE
  5
46
330
5
100
AcDbSymbolTableRecord
100
AcDbLinetypeTableRecord
  2
HIDDEN
 70
     0
  3
__ __ __ __ __ __ _
 72
    65
 73
     2
 40
0.1875
 49
0.125
 74
     0
 49
-0.0625
 74
     0
  0
LTYPE
  5
47
330
5
100
AcDbSymbolTableRecord
100
AcDbLinetypeTableRecord
  2
PHANTOM
 70
     0
  3
___ _ _ ___ _ _ ___
 72
    65
 73
     6
 40
1.25
 49
0.625
 74
     0
 49
-0.125
 74
     0
 49
0.125
 74
     0
 49
-0.125
 74
     0
 49
0.125
 74
     0
 49
-0.125
 74
     0
  0
LTYPE
  5
48
330
5
100
AcDbSymbolTableRecord
100
AcDbLinetypeTableRecord
  2
CUTTING
 70
     0
  3
________ _ _ ______
 72
    65
 73
     6
 40
1.4675
 49
1.0
 74
     0
 49
-0.0725
 74
     0
 49
0.125
 74
     0
 49
-0.0725
 74
     0
 49
0.125
 74
     0
 49
-0.0725
 74
     0
  0
LTYPE
  5
49
330
5
100
AcDbSymbolTableRecord
100
AcDbLinetypeTableRecord
  2
STITCH
 70
     0
  3
_ _ _ _ _ _ _ _ _ _
 72
    65
 73
     2
 40
0.145
 49
0.0725
 74
     0
 49
-0.0725
 74
     0
  0
LTYPE
  5
4A
330
5
100
AcDbSymbolTableRecord
100
AcDbLinetypeTableRecord
  2
DOTTED
 70
     0
  3
Dotted
 72
    65
 73
     2
 40
0.125
 49
0.0
 74
     0
 49
-0.125
 74
     0
  0
LTYPE
  5
4B
330
5
100
AcDbSymbolTableRecord
100
AcDbLinetypeTableRecord
  2
CENTER0
 70
     0
  3
Center
 72
    65
 73
     4
 40
0.7699999958000001
 49
0.5
 74
     0
 49
-0.0724999979
 74
     0
 49
0.125
 74
     0
 49
-0.0724999979
 74
     0
  0
LTYPE
  5
4C
330
5
100
AcDbSymbolTableRecord
100
AcDbLinetypeTableRecord
  2
DASHED1
 70
     0
  3
Dashed
 72
    65
 73
     2
 40
0.375
 49
0.25
 74
     0
 49
-0.125
 74
     0
  0
LTYPE
  5
4D
330
5
100
AcDbSymbolTableRecord
100
AcDbLinetypeTableRecord
  2
HIDDEN2
 70
     0
  3
Hidden
 72
    65
 73
     2
 40
0.1974999979
 49
0.125
 74
     0
 49
-0.0724999979
 74
     0
  0
LTYPE
  5
4E
330
5
100
AcDbSymbolTableRecord
100
AcDbLinetypeTableRecord
  2
PHANTOM3
 70
     0
  3
Phantom
 72
    65
 73
     6
 40
0.9674999937000002
 49
0.5
 74
     0
 49
-0.0724999979
 74
     0
 49
0.125
 74
     0
 49
-0.0724999979
 74
     0
 49
0.125
 74
     0
 49
-0.0724999979
 74
     0
  0
LTYPE
  5
4F
330
5
100
AcDbSymbolTableRecord
100
AcDbLinetypeTableRecord
  2
DASHDOT4
 70
     0
  3
Dashdot
 72
    65
 73
     4
 40
0.6762499958000001
 49
0.5
 74
     0
 49
-0.0724999979
 74
     0
 49
0.03125
 74
     0
 49
-0.0724999979
 74
     0
  0
LTYPE
  5
50
330
5
100
AcDbSymbolTableRecord
100
AcDbLinetypeTableRecord
  2
BORDER5
 70
     0
  3
Border
 72
    65
 73
     6
 40
1.2487499937
 49
0.5
 74
     0
 49
-0.0724999979
 74
     0
 49
0.5
 74
     0
 49
-0.0724999979
 74
     0
 49
0.03125
 74
     0
 49
-0.0724999979
 74
     0
  0
LTYPE
  5
51
330
5
100
AcDbSymbolTableRecord
100
AcDbLinetypeTableRecord
  2
DIVIDE6
 70
     0
  3
Divide
 72
    65
 73
     6
 40
0.7799999937000002
 49
0.5
 74
     0
 49
-0.0724999979
 74
     0
 49
0.03125
 74
     0
 49
-0.0724999979
 74
     0
 49
0.03125
 74
     0
 49
-0.0724999979
 74
     0
  0
LTYPE
  5
52
330
5
100
AcDbSymbolTableRecord
100
AcDbLinetypeTableRecord
  2
CUTTING7
 70
     0
  3
Cutting
 72
    65
 73
     6
 40
1.4674999937
 49
1.0
 74
     0
 49
-0.0724999979
 74
     0
 49
0.125
 74
     0
 49
-0.0724999979
 74
     0
 49
0.125
 74
     0
 49
-0.0724999979
 74
     0
  0
LTYPE
  5
53
330
5
100
AcDbSymbolTableRecord
100
AcDbLinetypeTableRecord
  2
STITCH8
 70
     0
  3
Stitch
 72
    65
 73
     2
 40
0.1449999958
 49
0.0724999979
 74
     0
 49
-0.0724999979
 74
     0
  0
LTYPE
  5
54
330
5
100
AcDbSymbolTableRecord
100
AcDbLinetypeTableRecord
  2
CENTER18
 70
     0
  3
Center
 72
    65
 73
     4
 40
0.7699999958000001
 49
0.5
 74
     0
 49
-0.0724999979
 74
     0
 49
0.125
 74
     0
 49
-0.0724999979
 74
     0
  0
LTYPE
  5
55
330
5
100
AcDbSymbolTableRecord
100
AcDbLinetypeTableRecord
  2
DASHED19
 70
     0
  3
Dashed
 72
    65
 73
     2
 40
0.375
 49
0.25
 74
     0
 49
-0.125
 74
     0
  0
LTYPE
  5
56
330
5
100
AcDbSymbolTableRecord
100
AcDbLinetypeTableRecord
  2
HIDDEN20
 70
     0
  3
Hidden
 72
    65
 73
     2
 40
0.1974999979
 49
0.125
 74
     0
 49
-0.0724999979
 74
     0
  0
LTYPE
  5
57
330
5
100
AcDbSymbolTableRecord
100
AcDbLinetypeTableRecord
  2
PHANTOM21
 70
     0
  3
Phantom
 72
    65
 73
     6
 40
0.9674999937000002
 49
0.5
 74
     0
 49
-0.0724999979
 74
     0
 49
0.125
 74
     0
 49
-0.0724999979
 74
     0
 49
0.125
 74
     0
 49
-0.0724999979
 74
     0
  0
LTYPE
  5
58
330
5
100
AcDbSymbolTableRecord
100
AcDbLinetypeTableRecord
  2
DASHDOT22
 70
     0
  3
Dashdot
 72
    65
 73
     4
 40
0.6762499958000001
 49
0.5
 74
     0
 49
-0.0724999979
 74
     0
 49
0.03125
 74
     0
 49
-0.0724999979
 74
     0
  0
LTYPE
  5
59
330
5
100
AcDbSymbolTableRecord
100
AcDbLinetypeTableRecord
  2
BORDER23
 70
     0
  3
Border
 72
    65
 73
     6
 40
1.2487499937
 49
0.5
 74
     0
 49
-0.0724999979
 74
     0
 49
0.5
 74
     0
 49
-0.0724999979
 74
     0
 49
0.03125
 74
     0
 49
-0.0724999979
 74
     0
  0
LTYPE
  5
5A
330
5
100
AcDbSymbolTableRecord
100
AcDbLinetypeTableRecord
  2
DIVIDE24
 70
     0
  3
Divide
 72
    65
 73
     6
 40
0.7799999937000002
 49
0.5
 74
     0
 49
-0.0724999979
 74
     0
 49
0.03125
 74
     0
 49
-0.0724999979
 74
     0
 49
0.03125
 74
     0
 49
-0.0724999979
 74
     0
  0
LTYPE
  5
5B
330
5
100
AcDbSymbolTableRecord
100
AcDbLinetypeTableRecord
  2
CUTTING25
 70
     0
  3
Cutting
 72
    65
 73
     6
 40
1.4674999937
 49
1.0
 74
     0
 49
-0.0724999979
 74
     0
 49
0.125
 74
     0
 49
-0.0724999979
 74
     0
 49
0.125
 74
     0
 49
-0.0724999979
 74
     0
  0
LTYPE
  5
5C
330
5
100
AcDbSymbolTableRecord
100
AcDbLinetypeTableRecord
  2
STITCH26
 70
     0
  3
Stitch
 72
    65
 73
     2
 40
0.1449999958
 49
0.0724999979
 74
     0
 49
-0.0724999979
 74
     0
  0
LTYPE
  5
5D
330
5
100
AcDbSymbolTableRecord
100
AcDbLinetypeTableRecord
  2
CENTER98
 70
     0
  3
Center
 72
    65
 73
     4
 40
0.7699999958000001
 49
0.5
 74
     0
 49
-0.0724999979
 74
     0
 49
0.125
 74
     0
 49
-0.0724999979
 74
     0
  0
LTYPE
  5
5E
330
5
100
AcDbSymbolTableRecord
100
AcDbLinetypeTableRecord
  2
DASHED99
 70
     0
  3
Dashed
 72
    65
 73
     2
 40
0.375
 49
0.25
 74
     0
 49
-0.125
 74
     0
  0
LTYPE
  5
5F
330
5
100
AcDbSymbolTableRecord
100
AcDbLinetypeTableRecord
  2
HIDDEN100
 70
     0
  3
Hidden
 72
    65
 73
     2
 40
0.1974999979
 49
0.125
 74
     0
 49
-0.0724999979
 74
     0
  0
LTYPE
  5
60
330
5
100
AcDbSymbolTableRecord
100
AcDbLinetypeTableRecord
  2
PHANTOM101
 70
     0
  3
Phantom
 72
    65
 73
     6
 40
0.9674999937000002
 49
0.5
 74
     0
 49
-0.0724999979
 74
     0
 49
0.125
 74
     0
 49
-0.0724999979
 74
     0
 49
0.125
 74
     0
 49
-0.0724999979
 74
     0
  0
LTYPE
  5
61
330
5
100
AcDbSymbolTableRecord
100
AcDbLinetypeTableRecord
  2
DASHDOT102
 70
     0
  3
Dashdot
 72
    65
 73
     4
 40
0.6762499958000001
 49
0.5
 74
     0
 49
-0.0724999979
 74
     0
 49
0.03125
 74
     0
 49
-0.0724999979
 74
     0
  0
LTYPE
  5
62
330
5
100
AcDbSymbolTableRecord
100
AcDbLinetypeTableRecord
  2
BORDER103
 70
     0
  3
Border
 72
    65
 73
     6
 40
1.2487499937
 49
0.5
 74
     0
 49
-0.0724999979
 74
     0
 49
0.5
 74
     0
 49
-0.0724999979
 74
     0
 49
0.03125
 74
     0
 49
-0.0724999979
 74
     0
  0
LTYPE
  5
63
330
5
100
AcDbSymbolTableRecord
100
AcDbLinetypeTableRecord
  2
DIVIDE104
 70
     0
  3
Divide
 72
    65
 73
     6
 40
0.7799999937000002
 49
0.5
 74
     0
 49
-0.0724999979
 74
     0
 49
0.03125
 74
     0
 49
-0.0724999979
 74
     0
 49
0.03125
 74
     0
 49
-0.0724999979
 74
     0
  0
LTYPE
  5
64
330
5
100
AcDbSymbolTableRecord
100
AcDbLinetypeTableRecord
  2
CUTTING105
 70
     0
  3
Cutting
 72
    65
 73
     6
 40
1.4674999937
 49
1.0
 74
     0
 49
-0.0724999979
 74
     0
 49
0.125
 74
     0
 49
-0.0724999979
 74
     0
 49
0.125
 74
     0
 49
-0.0724999979
 74
     0
  0
LTYPE
  5
65
330
5
100
AcDbSymbolTableRecord
100
AcDbLinetypeTableRecord
  2
STITCH106
 70
     0
  3
Stitch
 72
    65
 73
     2
 40
0.1449999958
 49
0.0724999979
 74
     0
 49
-0.0724999979
 74
     0
  0
LTYPE
  5
66
330
5
100
AcDbSymbolTableRecord
100
AcDbLinetypeTableRecord
  2
DOTTED107
 70
     0
  3
Dotted
 72
    65
 73
     2
 40
0.125
 49
0.0
 74
     0
 49
-0.125
 74
     0
  0
LTYPE
  5
67
330
5
100
AcDbSymbolTableRecord
100
AcDbLinetypeTableRecord
  2
CENTER9
 70
     0
  3
Center
 72
    65
 73
     4
 40
0.7699999958000001
 49
0.5
 74
     0
 49
-0.0724999979
 74
     0
 49
0.125
 74
     0
 49
-0.0724999979
 74
     0
  0
LTYPE
  5
68
330
5
100
AcDbSymbolTableRecord
100
AcDbLinetypeTableRecord
  2
DASHED10
 70
     0
  3
Dashed
 72
    65
 73
     2
 40
0.375
 49
0.25
 74
     0
 49
-0.125
 74
     0
  0
LTYPE
  5
69
330
5
100
AcDbSymbolTableRecord
100
AcDbLinetypeTableRecord
  2
HIDDEN11
 70
     0
  3
Hidden
 72
    65
 73
     2
 40
0.1974999979
 49
0.125
 74
     0
 49
-0.0724999979
 74
     0
  0
LTYPE
  5
6A
330
5
100
AcDbSymbolTableRecord
100
AcDbLinetypeTableRecord
  2
PHANTOM12
 70
     0
  3
Phantom
 72
    65
 73
     6
 40
0.9674999937000002
 49
0.5
 74
     0
 49
-0.0724999979
 74
     0
 49
0.125
 74
     0
 49
-0.0724999979
 74
     0
 49
0.125
 74
     0
 49
-0.0724999979
 74
     0
  0
LTYPE
  5
6B
330
5
100
AcDbSymbolTableRecord
100
AcDbLinetypeTableRecord
  2
DASHDOT13
 70
     0
  3
Dashdot
 72
    65
 73
     4
 40
0.6762499958000001
 49
0.5
 74
     0
 49
-0.0724999979
 74
     0
 49
0.03125
 74
     0
 49
-0.0724999979
 74
     0
  0
LTYPE
  5
6C
330
5
100
AcDbSymbolTableRecord
100
AcDbLinetypeTableRecord
  2
BORDER14
 70
     0
  3
Border
 72
    65
 73
     6
 40
1.2487499937
 49
0.5
 74
     0
 49
-0.0724999979
 74
     0
 49
0.5
 74
     0
 49
-0.0724999979
 74
     0
 49
0.03125
 74
     0
 49
-0.0724999979
 74
     0
  0
LTYPE
  5
6D
330
5
100
AcDbSymbolTableRecord
100
AcDbLinetypeTableRecord
  2
DIVIDE15
 70
     0
  3
Divide
 72
    65
 73
     6
 40
0.7799999937000002
 49
0.5
 74
     0
 49
-0.0724999979
 74
     0
 49
0.03125
 74
     0
 49
-0.0724999979
 74
     0
 49
0.03125
 74
     0
 49
-0.0724999979
 74
     0
  0
LTYPE
  5
6E
330
5
100
AcDbSymbolTableRecord
100
AcDbLinetypeTableRecord
  2
CUTTING16
 70
     0
  3
Cutting
 72
    65
 73
     6
 40
1.4674999937
 49
1.0
 74
     0
 49
-0.0724999979
 74
     0
 49
0.125
 74
     0
 49
-0.0724999979
 74
     0
 49
0.125
 74
     0
 49
-0.0724999979
 74
     0
  0
LTYPE
  5
6F
330
5
100
AcDbSymbolTableRecord
100
AcDbLinetypeTableRecord
  2
STITCH17
 70
     0
  3
Stitch
 72
    65
 73
     2
 40
0.1449999958
 49
0.0724999979
 74
     0
 49
-0.0724999979
 74
     0
  0
LTYPE
  5
70
330
5
100
AcDbSymbolTableRecord
100
AcDbLinetypeTableRecord
  2
DOTTED27
 70
     0
  3
Dotted
 72
    65
 73
     2
 40
0.125
 49
0.0
 74
     0
 49
-0.125
 74
     0
  0
LTYPE
  5
71
330
5
100
AcDbSymbolTableRecord
100
AcDbLinetypeTableRecord
  2
CENTER28
 70
     0
  3
Center
 72
    65
 73
     4
 40
0.7699999958000001
 49
0.5
 74
     0
 49
-0.0724999979
 74
     0
 49
0.125
 74
     0
 49
-0.0724999979
 74
     0
  0
LTYPE
  5
72
330
5
100
AcDbSymbolTableRecord
100
AcDbLinetypeTableRecord
  2
DASHED29
 70
     0
  3
Dashed
 72
    65
 73
     2
 40
0.375
 49
0.25
 74
     0
 49
-0.125
 74
     0
  0
LTYPE
  5
73
330
5
100
AcDbSymbolTableRecord
100
AcDbLinetypeTableRecord
  2
HIDDEN30
 70
     0
  3
Hidden
 72
    65
 73
     2
 40
0.1974999979
 49
0.125
 74
     0
 49
-0.0724999979
 74
     0
  0
LTYPE
  5
74
330
5
100
AcDbSymbolTableRecord
100
AcDbLinetypeTableRecord
  2
PHANTOM31
 70
     0
  3
Phantom
 72
    65
 73
     6
 40
0.9674999937000002
 49
0.5
 74
     0
 49
-0.0724999979
 74
     0
 49
0.125
 74
     0
 49
-0.0724999979
 74
     0
 49
0.125
 74
     0
 49
-0.0724999979
 74
     0
  0
LTYPE
  5
75
330
5
100
AcDbSymbolTableRecord
100
AcDbLinetypeTableRecord
  2
DASHDOT32
 70
     0
  3
Dashdot
 72
    65
 73
     4
 40
0.6762499958000001
 49
0.5
 74
     0
 49
-0.0724999979
 74
     0
 49
0.03125
 74
     0
 49
-0.0724999979
 74
     0
  0
LTYPE
  5
76
330
5
100
AcDbSymbolTableRecord
100
AcDbLinetypeTableRecord
  2
BORDER33
 70
     0
  3
Border
 72
    65
 73
     6
 40
1.2487499937
 49
0.5
 74
     0
 49
-0.0724999979
 74
     0
 49
0.5
 74
     0
 49
-0.0724999979
 74
     0
 49
0.03125
 74
     0
 49
-0.0724999979
 74
     0
  0
LTYPE
  5
77
330
5
100
AcDbSymbolTableRecord
100
AcDbLinetypeTableRecord
  2
DIVIDE34
 70
     0
  3
Divide
 72
    65
 73
     6
 40
0.7799999937000002
 49
0.5
 74
     0
 49
-0.0724999979
 74
     0
 49
0.03125
 74
     0
 49
-0.0724999979
 74
     0
 49
0.03125
 74
     0
 49
-0.0724999979
 74
     0
  0
LTYPE
  5
78
330
5
100
AcDbSymbolTableRecord
100
AcDbLinetypeTableRecord
  2
CUTTING35
 70
     0
  3
Cutting
 72
    65
 73
     6
 40
1.4674999937
 49
1.0
 74
     0
 49
-0.0724999979
 74
     0
 49
0.125
 74
     0
 49
-0.0724999979
 74
     0
 49
0.125
 74
     0
 49
-0.0724999979
 74
     0
  0
LTYPE
  5
79
330
5
100
AcDbSymbolTableRecord
100
AcDbLinetypeTableRecord
  2
STITCH36
 70
     0
  3
Stitch
 72
    65
 73
     2
 40
0.1449999958
 49
0.0724999979
 74
     0
 49
-0.0724999979
 74
     0
  0
LTYPE
  5
7A
330
5
100
AcDbSymbolTableRecord
100
AcDbLinetypeTableRecord
  2
DOTTED37
 70
     0
  3
Dotted
 72
    65
 73
     2
 40
0.125
 49
0.0
 74
     0
 49
-0.125
 74
     0
  0
LTYPE
  5
7B
330
5
100
AcDbSymbolTableRecord
100
AcDbLinetypeTableRecord
  2
CENTER38
 70
     0
  3
Center
 72
    65
 73
     4
 40
0.7699999958000001
 49
0.5
 74
     0
 49
-0.0724999979
 74
     0
 49
0.125
 74
     0
 49
-0.0724999979
 74
     0
  0
LTYPE
  5
7C
330
5
100
AcDbSymbolTableRecord
100
AcDbLinetypeTableRecord
  2
DASHED39
 70
     0
  3
Dashed
 72
    65
 73
     2
 40
0.375
 49
0.25
 74
     0
 49
-0.125
 74
     0
  0
LTYPE
  5
7D
330
5
100
AcDbSymbolTableRecord
100
AcDbLinetypeTableRecord
  2
HIDDEN40
 70
     0
  3
Hidden
 72
    65
 73
     2
 40
0.1974999979
 49
0.125
 74
     0
 49
-0.0724999979
 74
     0
  0
LTYPE
  5
7E
330
5
100
AcDbSymbolTableRecord
100
AcDbLinetypeTableRecord
  2
PHANTOM41
 70
     0
  3
Phantom
 72
    65
 73
     6
 40
0.9674999937000002
 49
0.5
 74
     0
 49
-0.0724999979
 74
     0
 49
0.125
 74
     0
 49
-0.0724999979
 74
     0
 49
0.125
 74
     0
 49
-0.0724999979
 74
     0
  0
LTYPE
  5
7F
330
5
100
AcDbSymbolTableRecord
100
AcDbLinetypeTableRecord
  2
DASHDOT42
 70
     0
  3
Dashdot
 72
    65
 73
     4
 40
0.6762499958000001
 49
0.5
 74
     0
 49
-0.0724999979
 74
     0
 49
0.03125
 74
     0
 49
-0.0724999979
 74
     0
  0
LTYPE
  5
80
330
5
100
AcDbSymbolTableRecord
100
AcDbLinetypeTableRecord
  2
BORDER43
 70
     0
  3
Border
 72
    65
 73
     6
 40
1.2487499937
 49
0.5
 74
     0
 49
-0.0724999979
 74
     0
 49
0.5
 74
     0
 49
-0.0724999979
 74
     0
 49
0.03125
 74
     0
 49
-0.0724999979
 74
     0
  0
LTYPE
  5
81
330
5
100
AcDbSymbolTableRecord
100
AcDbLinetypeTableRecord
  2
DIVIDE44
 70
     0
  3
Divide
 72
    65
 73
     6
 40
0.7799999937000002
 49
0.5
 74
     0
 49
-0.0724999979
 74
     0
 49
0.03125
 74
     0
 49
-0.0724999979
 74
     0
 49
0.03125
 74
     0
 49
-0.0724999979
 74
     0
  0
LTYPE
  5
82
330
5
100
AcDbSymbolTableRecord
100
AcDbLinetypeTableRecord
  2
CUTTING45
 70
     0
  3
Cutting
 72
    65
 73
     6
 40
1.4674999937
 49
1.0
 74
     0
 49
-0.0724999979
 74
     0
 49
0.125
 74
     0
 49
-0.0724999979
 74
     0
 49
0.125
 74
     0
 49
-0.0724999979
 74
     0
  0
LTYPE
  5
83
330
5
100
AcDbSymbolTableRecord
100
AcDbLinetypeTableRecord
  2
STITCH46
 70
     0
  3
Stitch
 72
    65
 73
     2
 40
0.1449999958
 49
0.0724999979
 74
     0
 49
-0.0724999979
 74
     0
  0
LTYPE
  5
84
330
5
100
AcDbSymbolTableRecord
100
AcDbLinetypeTableRecord
  2
DOTTED47
 70
     0
  3
Dotted
 72
    65
 73
     2
 40
0.125
 49
0.0
 74
     0
 49
-0.125
 74
     0
  0
LTYPE
  5
85
330
5
100
AcDbSymbolTableRecord
100
AcDbLinetypeTableRecord
  2
CENTER48
 70
     0
  3
Center
 72
    65
 73
     4
 40
0.7699999958000001
 49
0.5
 74
     0
 49
-0.0724999979
 74
     0
 49
0.125
 74
     0
 49
-0.0724999979
 74
     0
  0
LTYPE
  5
86
330
5
100
AcDbSymbolTableRecord
100
AcDbLinetypeTableRecord
  2
DASHED49
 70
     0
  3
Dashed
 72
    65
 73
     2
 40
0.375
 49
0.25
 74
     0
 49
-0.125
 74
     0
  0
LTYPE
  5
87
330
5
100
AcDbSymbolTableRecord
100
AcDbLinetypeTableRecord
  2
HIDDEN50
 70
     0
  3
Hidden
 72
    65
 73
     2
 40
0.1974999979
 49
0.125
 74
     0
 49
-0.0724999979
 74
     0
  0
LTYPE
  5
88
330
5
100
AcDbSymbolTableRecord
100
AcDbLinetypeTableRecord
  2
PHANTOM51
 70
     0
  3
Phantom
 72
    65
 73
     6
 40
0.9674999937000002
 49
0.5
 74
     0
 49
-0.0724999979
 74
     0
 49
0.125
 74
     0
 49
-0.0724999979
 74
     0
 49
0.125
 74
     0
 49
-0.0724999979
 74
     0
  0
LTYPE
  5
89
330
5
100
AcDbSymbolTableRecord
100
AcDbLinetypeTableRecord
  2
DASHDOT52
 70
     0
  3
Dashdot
 72
    65
 73
     4
 40
0.6762499958000001
 49
0.5
 74
     0
 49
-0.0724999979
 74
     0
 49
0.03125
 74
     0
 49
-0.0724999979
 74
     0
  0
ENDTAB
  0
TABLE
  2
LAYER
  5
2
330
0
100
AcDbSymbolTable
 70
     5
  0
LAYER
  5
10
330
2
100
AcDbSymbolTableRecord
100
AcDbLayerTableRecord
  2
0
 70
     0
 62
     7
  6
CONTINUOUS
  0
LAYER
  5
3C
330
2
100
AcDbSymbolTableRecord
100
AcDbLayerTableRecord
  2
DXF_US-2021_V5
 70
     0
 62
     7
  6
CONTINUOUS
  0
LAYER
  5
3D
330
2
100
AcDbSymbolTableRecord
100
AcDbLayerTableRecord
  2
DXF_US-2021_V5_MODEL
 70
     0
 62
     7
  6
CONTINUOUS
  0
LAYER
  5
3E
330
2
100
AcDbSymbolTableRecord
100
AcDbLayerTableRecord
  2
DXF_US-2021_V5_MODEL_DXF_U
 70
     0
 62
     7
  6
CONTINUOUS
  0
LAYER
  5
AB
330
2
100
AcDbSymbolTableRecord
100
AcDbLayerTableRecord
  2
DEFPOINTS
 70
     0
 62
     7
  6
CONTINUOUS
  0
ENDTAB
  0
TABLE
  2
STYLE
  5
3
330
0
100
AcDbSymbolTable
 70
     7
  0
STYLE
  5
11
330
3
100
AcDbSymbolTableRecord
100
AcDbTextStyleTableRecord
  2
STANDARD
 70
     0
 40
0.0
 41
1.0
 50
0.0
 71
     0
 42
0.2
  3
txt
  4

  0
STYLE
  5
95
330
3
100
AcDbSymbolTableRecord
100
AcDbTextStyleTableRecord
  2
TEXT30
 70
     0
 40
0.2
 41
1.0
 50
0.0
 71
     0
 42
0.2
  3

  4

1001
ACAD
1000
Plotter
1071
        0
  0
STYLE
  5
A6
330
3
100
AcDbSymbolTableRecord
100
AcDbTextStyleTableRecord
  2
TEXT46
 70
     0
 40
0.2
 41
1.0
 50
0.0
 71
     0
 42
0.2
  3

  4

1001
ACAD
1000
Plotter
1071
        0
  0
STYLE
  5
C5
330
3
100
AcDbSymbolTableRecord
100
AcDbTextStyleTableRecord
  2
TEXT62
 70
     0
 40
0.2
 41
1.0
 50
0.0
 71
     0
 42
0.2
  3

  4

1001
ACAD
1000
Plotter
1071
        0
  0
STYLE
  5
DF
330
3
100
AcDbSymbolTableRecord
100
AcDbTextStyleTableRecord
  2
TEXT87
 70
     0
 40
0.2
 41
1.0
 50
0.0
 71
     0
 42
0.2
  3

  4

1001
ACAD
1000
Plotter
1071
        0
  0
STYLE
  5
E1
330
3
100
AcDbSymbolTableRecord
100
AcDbTextStyleTableRecord
  2
TEXT88
 70
     0
 40
0.2
 41
1.0
 50
0.0
 71
     0
 42
0.2
  3

  4

1001
ACAD
1000
Plotter
1071
        0
  0
STYLE
  5
E3
330
3
100
AcDbSymbolTableRecord
100
AcDbTextStyleTableRecord
  2
TEXT89
 70
     0
 40
0.2
 41
1.0
 50
0.0
 71
     0
 42
0.2
  3

  4

1001
ACAD
1000
Plotter
1071
        0
  0
ENDTAB
  0
TABLE
  2
VIEW
  5
6
330
0
100
AcDbSymbolTable
 70
     0
  0
ENDTAB
  0
TABLE
  2
UCS
  5
7
330
0
100
AcDbSymbolTable
 70
     0
  0
ENDTAB
  0
TABLE
  2
APPID
  5
9
330
0
100
AcDbSymbolTable
 70
     2
  0
APPID
  5
12
330
9
100
AcDbSymbolTableRecord
100
AcDbRegAppTableRecord
  2
ACAD
 70
     0
  0
APPID
  5
3B
330
9
100
AcDbSymbolTableRecord
100
AcDbRegAppTableRecord
  2
PUNCH__SOFTWARE_VIACAD
 70
     0
  0
ENDTAB
  0
TABLE
  2
DIMSTYLE
  5
A
330
0
100
AcDbSymbolTable
 70
     4
  0
DIMSTYLE
105
27
330
A
100
AcDbSymbolTableRecord
100
AcDbDimStyleTableRecord
  2
STANDARD
 70
     0
  3

  4

  5

  6

  7

 40
1.0
 41
0.18
 42
0.0625
 43
0.38
 44
0.18
 45
0.0
 46
0.0
 47
0.0
 48
0.0
140
0.18
141
0.09
142
0.0
143
25.4
144
1.0
145
0.0
146
1.0
147
0.09
 71
     0
 72
     0
 73
     1
 74
     1
 75
     0
 76
     0
 77
     0
 78
     0
170
     0
171
     2
172
     0
173
     0
174
     0
175
     0
176
     0
177
     0
178
     0
270
     2
271
     4
272
     4
273
     2
274
     2
340
11
275
     0
280
     0
281
     0
282
     0
283
     1
284
     0
285
     0
286
     0
287
     3
288
     0
  0
DIMSTYLE
105
A9
102
{ACAD_REACTORS
330
AA
102
}
330
A
100
AcDbSymbolTableRecord
100
AcDbDimStyleTableRecord
  2
ROTATEDDIM12
 70
     0
  3

  4

  5

  6

  7

 40
1.0
 41
0.25
 42
0.0625
 43
0.38
 44
0.18
 45
0.0
 46
0.0
 47
0.0
 48
0.0
140
0.125
141
0.09
142
0.0
143
25.4
144
1.0
145
0.0
146
1.0
147
0.09
 71
     0
 72
     0
 73
     1
 74
     1
 75
     0
 76
     0
 77
     0
 78
     0
170
     0
171
     2
172
     0
173
     0
174
     0
175
     0
176
     0
177
     0
178
     0
270
     2
271
     4
272
     4
273
     2
274
     2
340
11
275
     0
280
     0
281
     0
282
     0
283
     1
284
     0
285
     0
286
     0
287
     3
288
     0
  0
DIMSTYLE
105
E5
102
{ACAD_REACTORS
330
E6
102
}
330
A
100
AcDbSymbolTableRecord
100
AcDbDimStyleTableRecord
  2
ROTATEDDIM13
 70
     0
  3

  4

  5

  6

  7

 40
1.0
 41
0.25
 42
0.0625
 43
0.38
 44
0.18
 45
0.0
 46
0.0
 47
0.0
 48
0.0
140
0.125
141
0.09
142
0.0
143
25.4
144
1.0
145
0.0
146
1.0
147
0.09
 71
     0
 72
     0
 73
     1
 74
     1
 75
     0
 76
     0
 77
     0
 78
     0
170
     0
171
     2
172
     0
173
     0
174
     0
175
     0
176
     0
177
     0
178
     0
270
     2
271
     4
272
     4
273
     2
274
     2
340
11
275
     0
280
     0
281
     0
282
     0
283
     1
284
     0
285
     0
286
     0
287
     3
288
     0
  0
DIMSTYLE
105
F4
102
{ACAD_REACTORS
330
F5
102
}
330
A
100
AcDbSymbolTableRecord
100
AcDbDimStyleTableRecord
  2
ROTATEDDIM14
 70
     0
  3

  4

  5

  6

  7

 40
1.0
 41
0.25
 42
0.0625
 43
0.38
 44
0.18
 45
0.0
 46
0.0
 47
0.0
 48
0.0
140
0.125
141
0.09
142
0.0
143
25.4
144
1.0
145
0.0
146
1.0
147
0.09
 71
     0
 72
     0
 73
     1
 74
     1
 75
     0
 76
     0
 77
     0
 78
     0
170
     0
171
     2
172
     0
173
     0
174
     0
175
     0
176
     0
177
     0
178
     0
270
     2
271
     4
272
     4
273
     2
274
     2
340
11
275
     0
280
     0
281
     0
282
     0
283
     1
284
     0
285
     0
286
     0
287
     3
288
     0
  0
ENDTAB
  0
TABLE
  2
BLOCK_RECORD
  5
1
330
0
100
AcDbSymbolTable
 70
     4
  0
BLOCK_RECORD
  5
1F
330
1
100
AcDbSymbolTableRecord
100
AcDbBlockTableRecord
  2
*MODEL_SPACE
  0
BLOCK_RECORD
  5
1B
330
1
100
AcDbSymbolTableRecord
100
AcDbBlockTableRecord
  2
*PAPER_SPACE
  0
BLOCK_RECORD
  5
AC
330
1
100
AcDbSymbolTableRecord
100
AcDbBlockTableRecord
  2
*D1
  0
BLOCK_RECORD
  5
E7
330
1
100
AcDbSymbolTableRecord
100
AcDbBlockTableRecord
  2
*D2
  0
BLOCK_RECORD
  5
F6
330
1
100
AcDbSymbolTableRecord
100
AcDbBlockTableRecord
  2
*D3
  0
ENDTAB
  0
ENDSEC
  0
SECTION
  2
BLOCKS
  0
BLOCK
  5
20
330
1F
100
AcDbEntity
  8
0
100
AcDbBlockBegin
  2
*MODEL_SPACE
 70
     0
 71
     0
 10
0.0
 20
0.0
 30
0.0
  3
*MODEL_SPACE
  1

  0
ENDBLK
  5
21
330
1F
100
AcDbEntity
  8
0
100
AcDbBlockEnd
  0
BLOCK
  5
1C
330
1B
100
AcDbEntity
 67
     1
  8
0
100
AcDbBlockBegin
  2
*PAPER_SPACE
 70
     0
 71
     0
 10
0.0
 20
0.0
 30
0.0
  3
*PAPER_SPACE
  1

  0
ENDBLK
  5
1D
330
1B
100
AcDbEntity
 67
     1
  8
0
100
AcDbBlockEnd
  0
BLOCK
  5
B7
330
AC
100
AcDbEntity
  8
0
100
AcDbBlockBegin
  2
*D1
 70
     1
 71
     0
 10
0.0
 20
0.0
 30
0.0
  3
*D1
  1

  0
LINE
  5
AD
330
AC
100
AcDbEntity
  8
DXF_US-2021_V5_MODEL_DXF_U
 62
     0
100
AcDbLine
 10
-1.5546929499
 20
-0.2083898013
 30
0.0
 11
-1.5546929499
 21
-0.4765708787
 31
0.0
  0
LINE
  5
AE
330
AC
100
AcDbEntity
  8
DXF_US-2021_V5_MODEL_DXF_U
 62
     0
100
AcDbLine
 10
-1.429551261
 20
-0.2083898013
 30
0.0
 11
-1.429551261
 21
-0.4765708787
 31
0.0
  0
LINE
  5
AF
330
AC
100
AcDbEntity
  8
DXF_US-2021_V5_MODEL_DXF_U
 62
     0
100
AcDbLine
 10
-1.8046929499
 20
-0.2965708787
 30
0.0
 11
-2.0546929499
 21
-0.2965708787
 31
0.0
  0
LINE
  5
B0
330
AC
100
AcDbEntity
  8
DXF_US-2021_V5_MODEL_DXF_U
 62
     0
100
AcDbLine
 10
-1.179551261
 20
-0.2965708787
 30
0.0
 11
-0.9295512610000001
 21
-0.2965708787
 31
0.0
  0
SOLID
  5
B1
330
AC
100
AcDbEntity
  8
DXF_US-2021_V5_MODEL_DXF_U
 62
     0
100
AcDbTrace
 10
-1.8046929499
 20
-0.3382375453666667
 30
0.0
 11
-1.8046929499
 21
-0.2549042120333333
 31
0.0
 12
-1.5546929499
 22
-0.2965708787
 32
0.0
 13
-1.5546929499
 23
-0.2965708787
 33
0.0
  0
SOLID
  5
B2
330
AC
100
AcDbEntity
  8
DXF_US-2021_V5_MODEL_DXF_U
 62
     0
100
AcDbTrace
 10
-1.179551261
 20
-0.2549042120333333
 30
0.0
 11
-1.179551261
 21
-0.3382375453666667
 31
0.0
 12
-1.429551261
 22
-0.2965708787
 32
0.0
 13
-1.429551261
 23
-0.2965708787
 33
0.0
  0
MTEXT
  5
B3
330
AC
100
AcDbEntity
  8
DXF_US-2021_V5_MODEL_DXF_U
 62
     0
100
AcDbMText
 10
-0.5478845943333336
 20
-0.2965708787
 30
0.0
 40
0.125
 41
0.0
 71
     5
 72
     1
  1
\A1;0.1251
  0
POINT
  5
B4
330
AC
100
AcDbEntity
  8
DEFPOINTS
 62
     0
100
AcDbPoint
 10
-1.5546929499
 20
-0.1458898013
 30
0.0
  0
POINT
  5
B5
330
AC
100
AcDbEntity
  8
DEFPOINTS
 62
     0
100
AcDbPoint
 10
-1.429551261
 20
-0.1458898013
 30
0.0
  0
POINT
  5
B6
330
AC
100
AcDbEntity
  8
DEFPOINTS
 62
     0
100
AcDbPoint
 10
-1.429551261
 20
-0.2965708787
 30
0.0
  0
ENDBLK
  5
B8
330
AC
100
AcDbEntity
  8
0
100
AcDbBlockEnd
  0
BLOCK
  5
F2
330
E7
100
AcDbEntity
  8
0
100
AcDbBlockBegin
  2
*D2
 70
     1
 71
     0
 10
0.0
 20
0.0
 30
0.0
  3
*D2
  1

  0
LINE
  5
E8
330
E7
100
AcDbEntity
  8
DXF_US-2021_V5_MODEL_DXF_U
 62
     0
100
AcDbLine
 10
-8.2515
 20
-6.764402935999999
 30
0.0
 11
-8.2515
 21
-9.8853870023
 31
0.0
  0
LINE
  5
E9
330
E7
100
AcDbEntity
  8
DXF_US-2021_V5_MODEL_DXF_U
 62
     0
100
AcDbLine
 10
10.3735
 20
-6.764402936
 30
0.0
 11
10.3735
 21
-9.8853870023
 31
0.0
  0
LINE
  5
EA
330
E7
100
AcDbEntity
  8
DXF_US-2021_V5_MODEL_DXF_U
 62
     0
100
AcDbLine
 10
-8.0015
 20
-9.7053870023
 30
0.0
 11
0.6108809523809526
 21
-9.7053870023
 31
0.0
  0
LINE
  5
EB
330
E7
100
AcDbEntity
  8
DXF_US-2021_V5_MODEL_DXF_U
 62
     0
100
AcDbLine
 10
10.1235
 20
-9.7053870023
 30
0.0
 11
1.511119047619047
 21
-9.7053870023
 31
0.0
  0
SOLID
  5
EC
330
E7
100
AcDbEntity
  8
DXF_US-2021_V5_MODEL_DXF_U
 62
     0
100
AcDbTrace
 10
-8.0015
 20
-9.663720335633334
 30
0.0
 11
-8.0015
 21
-9.747053668966666
 31
0.0
 12
-8.2515
 22
-9.7053870023
 32
0.0
 13
-8.2515
 23
-9.7053870023
 33
0.0
  0
SOLID
  5
ED
330
E7
100
AcDbEntity
  8
DXF_US-2021_V5_MODEL_DXF_U
 62
     0
100
AcDbTrace
 10
10.1235
 20
-9.747053668966666
 30
0.0
 11
10.1235
 21
-9.663720335633334
 31
0.0
 12
10.3735
 22
-9.7053870023
 32
0.0
 13
10.3735
 23
-9.7053870023
 33
0.0
  0
MTEXT
  5
EE
330
E7
100
AcDbEntity
  8
DXF_US-2021_V5_MODEL_DXF_U
 62
     0
100
AcDbMText
 10
1.061
 20
-9.7053870023
 30
0.0
 40
0.125
 41
0.0
 71
     5
 72
     1
  1
\A1;18.6250
  0
POINT
  5
EF
330
E7
100
AcDbEntity
  8
DEFPOINTS
 62
     0
100
AcDbPoint
 10
-8.2515
 20
-6.701902935999999
 30
0.0
  0
POINT
  5
F0
330
E7
100
AcDbEntity
  8
DEFPOINTS
 62
     0
100
AcDbPoint
 10
10.3735
 20
-6.701902936
 30
0.0
  0
POINT
  5
F1
330
E7
100
AcDbEntity
  8
DEFPOINTS
 62
     0
100
AcDbPoint
 10
10.3735
 20
-9.7053870023
 30
0.0
  0
ENDBLK
  5
F3
330
E7
100
AcDbEntity
  8
0
100
AcDbBlockEnd
  0
BLOCK
  5
101
330
F6
100
AcDbEntity
  8
0
100
AcDbBlockBegin
  2
*D3
 70
     1
 71
     0
 10
0.0
 20
0.0
 30
0.0
  3
*D3
  1

  0
LINE
  5
F7
330
F6
100
AcDbEntity
  8
DXF_US-2021_V5_MODEL_DXF_U
 62
     0
100
AcDbLine
 10
0.9983518739999999
 20
-8.5455
 30
0.0
 11
-9.7080977965
 21
-8.5455
 31
0.0
  0
LINE
  5
F8
330
F6
100
AcDbEntity
  8
DXF_US-2021_V5_MODEL_DXF_U
 62
     0
100
AcDbLine
 10
0.9983513740000021
 20
9.329496622200015
 30
0.0
 11
-9.708097796499999
 21
9.329496622200015
 31
0.0
  0
LINE
  5
F9
330
F6
100
AcDbEntity
  8
DXF_US-2021_V5_MODEL_DXF_U
 62
     0
100
AcDbLine
 10
-9.5280977965
 20
-8.2955
 30
0.0
 11
-9.5280977965
 21
0.2394983111000073
 31
0.0
  0
LINE
  5
FA
330
F6
100
AcDbEntity
  8
DXF_US-2021_V5_MODEL_DXF_U
 62
     0
100
AcDbLine
 10
-9.528097796499999
 20
9.079496622200015
 30
0.0
 11
-9.528097796499999
 21
0.5444983111000052
 31
0.0
  0
SOLID
  5
FB
330
F6
100
AcDbEntity
  8
DXF_US-2021_V5_MODEL_DXF_U
 62
     0
100
AcDbTrace
 10
-9.569764463166667
 20
-8.2955
 30
0.0
 11
-9.486431129833335
 21
-8.2955
 31
0.0
 12
-9.5280977965
 22
-8.5455
 32
0.0
 13
-9.5280977965
 23
-8.5455
 33
0.0
  0
SOLID
  5
FC
330
F6
100
AcDbEntity
  8
DXF_US-2021_V5_MODEL_DXF_U
 62
     0
100
AcDbTrace
 10
-9.486431129833333
 20
9.079496622200015
 30
0.0
 11
-9.569764463166665
 21
9.079496622200015
 31
0.0
 12
-9.528097796499999
 22
9.329496622200015
 32
0.0
 13
-9.528097796499999
 23
9.329496622200015
 33
0.0
  0
MTEXT
  5
FD
330
F6
100
AcDbEntity
  8
DXF_US-2021_V5_MODEL_DXF_U
 62
     0
100
AcDbMText
 10
-9.528097796499999
 20
0.3919983111000072
 30
0.0
 40
0.125
 41
0.0
 71
     5
 72
     1
  1
\A1;17.8750
  0
POINT
  5
FE
330
F6
100
AcDbEntity
  8
DEFPOINTS
 62
     0
100
AcDbPoint
 10
1.060851874
 20
-8.5455
 30
0.0
  0
POINT
  5
FF
330
F6
100
AcDbEntity
  8
DEFPOINTS
 62
     0
100
AcDbPoint
 10
1.060851374000002
 20
9.329496622200015
 30
0.0
  0
POINT
  5
100
330
F6
100
AcDbEntity
  8
DEFPOINTS
 62
     0
100
AcDbPoint
 10
-9.528097796499999
 20
9.329496622200015
 30
0.0
  0
ENDBLK
  5
102
330
F6
100
AcDbEntity
  8
0
100
AcDbBlockEnd
  0
ENDSEC
  0
SECTION
  2
ENTITIES
  0
LINE
  5
8A
330
1F
100
AcDbEntity
  8
DXF_US-2021_V5_MODEL_DXF_U
 62
    18
100
AcDbLine
 10
-1.4704098474
 20
-0.6093014403
 30
0.5
 11
-1.0069982084
 21
-0.1458898013
 31
0.5
  0
POINT
  5
8B
330
1F
100
AcDbEntity
  8
DXF_US-2021_V5_MODEL_DXF_U
 62
    18
100
AcDbPoint
 10
-0.479799593
 20
-0.6208898013
 30
0.5
  0
ARC
  5
8C
330
1F
100
AcDbEntity
  8
DXF_US-2021_V5_MODEL_DXF_U
 62
    18
100
AcDbCircle
 10
-6.460729773013555
 20
-6.754005217124274
 30
0.0
 40
1.791528021985544
100
AcDbArc
 50
178.3334551549815
 51
270.690229151544
  0
ARC
  5
8D
330
1F
100
AcDbEntity
  8
DXF_US-2021_V5_MODEL_DXF_U
 62
    18
100
AcDbCircle
 10
-5.187312357974798
 20
5.30262681623789
 30
0.0
 40
3.064927626532878
100
AcDbArc
 50
106.9466304688905
 51
181.2590633153642
  0
ARC
  5
8E
330
1F
100
AcDbEntity
  8
DXF_US-2021_V5_MODEL_DXF_U
 62
    18
100
AcDbCircle
 10
0.1105687174000002
 20
-0.3333898013
 30
0.5
 40
0.1874999999999998
100
AcDbArc
 50
0.0
 51
90.0
  0
LINE
  5
8F
330
1F
100
AcDbEntity
  8
DXF_US-2021_V5_MODEL_DXF_U
 62
    18
100
AcDbLine
 10
0.1870687174
 20
-0.6208898013
 30
0.5
 11
0.2980687174
 21
-0.5098898013
 31
0.5
  0
LINE
  5
90
330
1F
100
AcDbEntity
  8
DXF_US-2021_V5_MODEL_DXF_U
 62
     1
100
AcDbLine
 10
2.4453070501
 20
-0.7229323308
 30
0.5
 11
2.4453070501
 21
-0.1458898013
 31
0.5
  0
LINE
  5
91
330
1F
100
AcDbEntity
  8
DXF_US-2021_V5_MODEL_DXF_U
 62
    18
100
AcDbLine
 10
0.2980687174
 20
-0.3333898013
 30
0.5
 11
0.2980687174
 21
-0.6208898013
 31
0.5
  0
ARC
  5
92
330
1F
100
AcDbEntity
  8
DXF_US-2021_V5_MODEL_DXF_U
 62
    18
100
AcDbCircle
 10
8.475763921554627
 20
-6.647667124064545
 30
0.0
 40
1.898510928788542
100
AcDbArc
 50
271.6370229439688
 51
358.3629770560313
  0
LINE
  5
93
330
1F
100
AcDbEntity
  8
DXF_US-2021_V5_MODEL_DXF_U
 62
     1
100
AcDbLine
 10
2.5349872833
 20
0.3509511771
 30
0.5
 11
2.4453070501
 21
0.1960690222
 31
0.5
  0
LINE
  5
94
330
1F
100
AcDbEntity
  8
DXF_US-2021_V5_MODEL_DXF_U
 62
     1
100
AcDbLine
 10
2.4453070501
 20
0.7213215474
 30
0.5
 11
2.4453070501
 21
1.1041101987
 31
0.5
  0
TEXT
  5
96
330
1F
100
AcDbEntity
  8
DXF_US-2021_V5_MODEL_DXF_U
 62
     5
100
AcDbText
 10
1.0851195513
 20
2.3964909261
 30
0.5
 40
0.125
  1
COUNTERTOP
  7
TEXT30
100
AcDbText
  0
LINE
  5
97
330
1F
100
AcDbEntity
  8
DXF_US-2021_V5_MODEL_DXF_U
 62
     1
100
AcDbLine
 10
2.4453070501
 20
0.7213215474
 30
0.5
 11
2.354862585
 21
0.5866414128
 31
0.5
  0
LINE
  5
98
330
1F
100
AcDbEntity
  8
DXF_US-2021_V5_MODEL_DXF_U
 62
     1
100
AcDbLine
 10
2.354862585
 20
0.5866414128
 30
0.5
 11
2.5349872833
 21
0.3509511771
 31
0.5
  0
LINE
  5
99
330
1F
100
AcDbEntity
  8
DXF_US-2021_V5_MODEL_DXF_U
 62
     5
100
AcDbLine
 10
0.1095807111
 20
1.1041101987
 30
0.5
 11
0.8051407554
 21
2.3039183488
 31
0.5
  0
LINE
  5
9A
330
1F
100
AcDbEntity
  8
DXF_US-2021_V5_MODEL_DXF_U
 62
     5
100
AcDbLine
 10
0.8051407554
 20
2.3039183488
 30
0.5
 11
1.035124812
 21
2.3039183488
 31
0.5
  0
ARC
  5
9B
330
1F
100
AcDbEntity
  8
DXF_US-2021_V5_MODEL_DXF_U
 62
    18
100
AcDbCircle
 10
7.308569133478597
 20
5.302001054481393
 30
0.0
 40
3.06565698891534
100
AcDbArc
 50
358.7529342900703
 51
73.04880271852949
  0
LINE
  5
9C
330
1F
100
AcDbEntity
  8
DXF_US-2021_V5_MODEL_DXF_U
 62
    18
100
AcDbLine
 10
-1.5025894278
 20
-0.9755472259
 30
0.5
 11
-0.6729320033
 21
-0.1458898013
 31
0.5
  0
LINE
  5
9D
330
1F
100
AcDbEntity
  8
DXF_US-2021_V5_MODEL_DXF_U
 62
    18
100
AcDbLine
 10
-0.8138657982
 20
-0.6208898013
 30
0.5
 11
-0.3388657982
 21
-0.1458898013
 31
0.5
  0
LINE
  5
9E
330
1F
100
AcDbEntity
  8
DXF_US-2021_V5_MODEL_DXF_U
 62
    18
100
AcDbLine
 10
-0.6468326956
 20
-0.6208898013
 30
0.5
 11
-0.1718326956
 21
-0.1458898013
 31
0.5
  0
LINE
  5
9F
330
1F
100
AcDbEntity
  8
DXF_US-2021_V5_MODEL_DXF_U
 62
    18
100
AcDbLine
 10
-0.9719825284
 20
-0.6215012235
 30
0.5
 11
-0.4963711062
 21
-0.1458898013
 31
0.5
  0
LINE
  5
A0
330
1F
100
AcDbEntity
  8
DXF_US-2021_V5_MODEL_DXF_U
 62
    18
100
AcDbLine
 10
-1.4543200572
 20
-0.4261785475
 30
0.5
 11
-1.174031311
 21
-0.1458898013
 31
0.5
  0
LINE
  5
A1
330
1F
100
AcDbEntity
  8
DXF_US-2021_V5_MODEL_DXF_U
 62
    18
100
AcDbLine
 10
-1.6152179594
 20
-2.2574074754
 30
0.5
 11
-1.3020206553
 21
-1.9442101713
 31
0.5
  0
LINE
  5
A2
330
1F
100
AcDbEntity
  8
DXF_US-2021_V5_MODEL_DXF_U
 62
    18
100
AcDbLine
 10
-1.6313077496
 20
-2.4405303681
 30
0.5
 11
-1.3181104455
 21
-2.1273330641
 31
0.5
  0
LINE
  5
A3
330
1F
100
AcDbEntity
  8
DXF_US-2021_V5_MODEL_DXF_U
 62
    18
100
AcDbLine
 10
-1.6343624444
 20
-2.4752970877
 30
0.5
 11
-1.429551261
 21
-0.1458898013
 31
0.5
  0
LINE
  5
A4
330
1F
100
AcDbEntity
  8
DXF_US-2021_V5_MODEL_DXF_U
 62
     1
100
AcDbLine
 10
-1.6343993436
 20
-2.4757167581
 30
0.5
 11
-1.4664305936
 21
-2.5518886331
 31
0.5
  0
LINE
  5
A5
330
1F
100
AcDbEntity
  8
DXF_US-2021_V5_MODEL_DXF_U
 62
    18
100
AcDbLine
 10
-1.441995051
 20
-2.5852838747
 30
0.5
 11
-1.350290026
 21
-2.4935788496
 31
0.5
  0
TEXT
  5
A7
330
1F
100
AcDbEntity
  8
DXF_US-2021_V5_MODEL_DXF_U
 62
     5
100
AcDbText
 10
-3.4148804487
 20
-1.4535090739
 30
0.5
 40
0.125
  1
SINK
  7
TEXT46
100
AcDbText
  0
LINE
  5
A8
330
1F
100
AcDbEntity
  8
DXF_US-2021_V5_MODEL_DXF_U
 62
     1
100
AcDbLine
 10
-1.8023680936
 20
-2.3995448831
 30
0.5
 11
-1.6343993436
 21
-2.4757167581
 31
0.5
  0
DIMENSION
  5
AA
330
1F
100
AcDbEntity
  8
DXF_US-2021_V5_MODEL_DXF_U
 62
     5
100
AcDbDimension
  2
*D1
 10
-1.429551261
 20
-0.2965708787
 30
0.5
 11
-0.5478845943333336
 21
-0.2965708787
 31
0.5
 70
    32
  3
ROTATEDDIM12
100
AcDbAlignedDimension
 13
-1.5546929499
 23
-0.1458898013
 33
0.5
 14
-1.429551261
 24
-0.1458898013
 34
0.5
100
AcDbRotatedDimension
  0
LINE
  5
B9
330
1F
100
AcDbEntity
  8
DXF_US-2021_V5_MODEL_DXF_U
 62
     5
100
AcDbLine
 10
-1.563091157
 20
-1.6641361697
 30
0.5
 11
-2.9778394352
 21
-1.5398316512
 31
0.5
  0
LINE
  5
BA
330
1F
100
AcDbEntity
  8
DXF_US-2021_V5_MODEL_DXF_U
 62
     1
100
AcDbLine
 10
-1.4664305936
 20
-2.5518886331
 30
0.5
 11
-1.3759495827
 21
-2.6755460147
 31
0.5
  0
LINE
  5
BB
330
1F
100
AcDbEntity
  8
DXF_US-2021_V5_MODEL_DXF_U
 62
     1
100
AcDbLine
 10
-1.3759495827
 20
-2.6755460147
 30
0.5
 11
-1.3492430936
 21
-2.7120448831
 31
0.5
  0
LINE
  5
BC
330
1F
100
AcDbEntity
  8
DXF_US-2021_V5_MODEL_DXF_U
 62
    18
100
AcDbLine
 10
-1.5508587985
 20
-1.5249159042
 30
0.5
 11
-1.2376614944
 21
-1.2117186002
 31
0.5
  0
LINE
  5
BD
330
1F
100
AcDbEntity
  8
DXF_US-2021_V5_MODEL_DXF_U
 62
    18
100
AcDbLine
 10
-1.5669485887
 20
-1.708038797
 30
0.5
 11
-1.2537512847
 21
-1.3948414929
 31
0.5
  0
LINE
  5
BE
330
1F
100
AcDbEntity
  8
DXF_US-2021_V5_MODEL_DXF_U
 62
    18
100
AcDbLine
 10
-1.5415617887
 20
-2.5178175098
 30
0.5
 11
-1.3342002358
 21
-2.3104559569
 31
0.5
  0
LINE
  5
BF
330
1F
100
AcDbEntity
  8
DXF_US-2021_V5_MODEL_DXF_U
 62
    18
100
AcDbLine
 10
-1.5186792181
 20
-1.1586701187
 30
0.5
 11
-1.2060068222
 21
-0.851446957
 31
0.5
  0
LINE
  5
C0
330
1F
100
AcDbEntity
  8
DXF_US-2021_V5_MODEL_DXF_U
 62
    18
100
AcDbLine
 10
-1.5830383789
 20
-1.8911616898
 30
0.5
 11
-1.2698410749
 21
-1.5779643857
 31
0.5
  0
LINE
  5
C1
330
1F
100
AcDbEntity
  8
DXF_US-2021_V5_MODEL_DXF_U
 62
     1
100
AcDbLine
 10
-1.3492430936
 20
-2.7120448831
 30
0.5
 11
-1.158214408
 21
-2.8039183488
 31
0.5
  0
LINE
  5
C2
330
1F
100
AcDbEntity
  8
DXF_US-2021_V5_MODEL_DXF_U
 62
    18
100
AcDbLine
 10
-1.4864996376
 20
-0.7924243331
 30
0.5
 11
-0.8399651058
 21
-0.1458898013
 31
0.5
  0
ARC
  5
C3
330
1F
100
AcDbEntity
  8
DXF_US-2021_V5_MODEL_DXF_U
 62
    18
100
AcDbCircle
 10
-0.9544197596000004
 20
-0.8734359686999997
 30
0.5
 40
0.2525461673999998
100
AcDbArc
 50
90.0
 51
175.0049731570999
  0
LINE
  5
C4
330
1F
100
AcDbEntity
  8
DXF_US-2021_V5_MODEL_DXF_U
 62
    18
100
AcDbLine
 10
-1.3674925629
 20
-2.6893662576
 30
0.5
 11
-1.2060068222
 21
-0.851446957
 31
0.5
  0
TEXT
  5
C6
330
1F
100
AcDbEntity
  8
DXF_US-2021_V5_MODEL_DXF_U
 62
    18
100
AcDbText
 10
-3.1411491897
 20
-3.443632715
 30
0.0
 40
0.125
  1
NOTE: THIS TEMPLATE IS FOR THE TYPE OF INSTALLATION SHOWN ABOVE.\PCOUNTERTOP WILL OVERHANG SINK BOWLS BY APPROXIMATELY 1/8".\PCHECK DIMENSIONS FOR PROPER FIT.
  7
TEXT62
100
AcDbText
  0
LINE
  5
C7
330
1F
100
AcDbEntity
  8
DXF_US-2021_V5_MODEL_DXF_U
 62
    18
100
AcDbLine
 10
0.0200687174
 20
-0.6208898013
 30
0.5
 11
0.2980687174
 21
-0.3428898013
 31
0.5
  0
LINE
  5
C8
330
1F
100
AcDbEntity
  8
DXF_US-2021_V5_MODEL_DXF_U
 62
     3
100
AcDbLine
 10
-1.5546929499
 20
-0.1458898013
 30
0.5
 11
2.4453070501
 21
-0.1458898013
 31
0.5
  0
LINE
  5
C9
330
1F
100
AcDbEntity
  8
DXF_US-2021_V5_MODEL_DXF_U
 62
    18
100
AcDbLine
 10
-1.4295881602
 20
-0.1458898013
 30
-0.5
 11
0.1105687746
 21
-0.1458898013
 31
-0.5
  0
LINE
  5
CA
330
1F
100
AcDbEntity
  8
DXF_US-2021_V5_MODEL_DXF_U
 62
    18
100
AcDbLine
 10
-1.4295881602
 20
-0.1458898013
 30
-0.5
 11
0.1105687174
 21
-0.1454701309
 31
-0.5
  0
LINE
  5
CB
330
1F
100
AcDbEntity
  8
DXF_US-2021_V5_MODEL_DXF_U
 62
    18
100
AcDbLine
 10
-0.9544197596
 20
-0.6208898013
 30
0.5
 11
0.2980687174
 21
-0.6208898013
 31
0.5
  0
LINE
  5
CC
330
1F
100
AcDbEntity
  8
DXF_US-2021_V5_MODEL_DXF_U
 62
     3
100
AcDbLine
 10
2.2027736127
 20
1.1041101987
 30
0.5
 11
2.4453070501
 21
0.8615767613
 31
0.5
  0
LINE
  5
CD
330
1F
100
AcDbEntity
  8
DXF_US-2021_V5_MODEL_DXF_U
 62
     3
100
AcDbLine
 10
1.8687074076
 20
1.1041101987
 30
0.5
 11
2.3674429186
 21
0.6053746877
 31
0.5
  0
LINE
  5
CE
330
1F
100
AcDbEntity
  8
DXF_US-2021_V5_MODEL_DXF_U
 62
     3
100
AcDbLine
 10
1.5346412025
 20
1.1041101987
 30
0.5
 11
2.4453070501
 21
0.1934443511
 31
0.5
  0
LINE
  5
CF
330
1F
100
AcDbEntity
  8
DXF_US-2021_V5_MODEL_DXF_U
 62
     3
100
AcDbLine
 10
1.2005749974
 20
1.1041101987
 30
0.5
 11
2.4453070501
 21
-0.140621854
 31
0.5
  0
LINE
  5
D0
330
1F
100
AcDbEntity
  8
DXF_US-2021_V5_MODEL_DXF_U
 62
     3
100
AcDbLine
 10
0.8665087922
 20
1.1041101987
 30
0.5
 11
2.1165087922
 21
-0.1458898013
 31
0.5
  0
LINE
  5
D1
330
1F
100
AcDbEntity
  8
DXF_US-2021_V5_MODEL_DXF_U
 62
     3
100
AcDbLine
 10
0.5324425871
 20
1.1041101987
 30
0.5
 11
1.7824425871
 21
-0.1458898013
 31
0.5
  0
LINE
  5
D2
330
1F
100
AcDbEntity
  8
DXF_US-2021_V5_MODEL_DXF_U
 62
     3
100
AcDbLine
 10
0.198376382
 20
1.1041101987
 30
0.5
 11
1.448376382
 21
-0.1458898013
 31
0.5
  0
LINE
  5
D3
330
1F
100
AcDbEntity
  8
DXF_US-2021_V5_MODEL_DXF_U
 62
     3
100
AcDbLine
 10
-0.1356898232
 20
1.1041101987
 30
0.5
 11
1.1143101768
 21
-0.1458898013
 31
0.5
  0
LINE
  5
D4
330
1F
100
AcDbEntity
  8
DXF_US-2021_V5_MODEL_DXF_U
 62
     3
100
AcDbLine
 10
-0.4697560283
 20
1.1041101987
 30
0.5
 11
0.7802439717
 21
-0.1458898013
 31
0.5
  0
LINE
  5
D5
330
1F
100
AcDbEntity
  8
DXF_US-2021_V5_MODEL_DXF_U
 62
     3
100
AcDbLine
 10
-0.8038222334
 20
1.1041101987
 30
0.5
 11
0.4461777666
 21
-0.1458898013
 31
0.5
  0
LINE
  5
D6
330
1F
100
AcDbEntity
  8
DXF_US-2021_V5_MODEL_DXF_U
 62
     3
100
AcDbLine
 10
-1.1378884385
 20
1.1041101987
 30
0.5
 11
0.1121115615
 21
-0.1458898013
 31
0.5
  0
LINE
  5
D7
330
1F
100
AcDbEntity
  8
DXF_US-2021_V5_MODEL_DXF_U
 62
     3
100
AcDbLine
 10
-1.4719546437
 20
1.1041101987
 30
0.5
 11
-0.2219546437
 21
-0.1458898013
 31
0.5
  0
LINE
  5
D8
330
1F
100
AcDbEntity
  8
DXF_US-2021_V5_MODEL_DXF_U
 62
     3
100
AcDbLine
 10
-1.5546929499
 20
0.8527822998
 30
0.5
 11
-0.5560208488
 21
-0.1458898013
 31
0.5
  0
LINE
  5
D9
330
1F
100
AcDbEntity
  8
DXF_US-2021_V5_MODEL_DXF_U
 62
     3
100
AcDbLine
 10
-1.5546929499
 20
0.5187160947
 30
0.5
 11
-0.8900870539
 21
-0.1458898013
 31
0.5
  0
LINE
  5
DA
330
1F
100
AcDbEntity
  8
DXF_US-2021_V5_MODEL_DXF_U
 62
     3
100
AcDbLine
 10
-1.5546929499
 20
0.1846498895
 30
0.5
 11
-1.2241532591
 21
-0.1458898013
 31
0.5
  0
LINE
  5
DB
330
1F
100
AcDbEntity
  8
DXF_US-2021_V5_MODEL_DXF_U
 62
     3
100
AcDbLine
 10
2.4453070501
 20
1.1041101987
 30
0.5
 11
-1.5546929499
 21
1.1041101987
 31
0.5
  0
LINE
  5
DC
330
1F
100
AcDbEntity
  8
DXF_US-2021_V5_MODEL_DXF_U
 62
    18
100
AcDbLine
 10
-0.1468919649
 20
-0.6208898013
 30
0.5
 11
0.2635165606
 21
-0.2249314809
 31
0.5
  0
LINE
  5
DD
330
1F
100
AcDbEntity
  8
DXF_US-2021_V5_MODEL_DXF_U
 62
    18
100
AcDbLine
 10
-0.479799593
 20
-0.6208898013
 30
0.5
 11
-0.004799593
 21
-0.1458898013
 31
0.5
  0
LINE
  5
DE
330
1F
100
AcDbEntity
  8
DXF_US-2021_V5_MODEL_DXF_U
 62
    18
100
AcDbLine
 10
-0.3127664905
 20
-0.6208898013
 30
0.5
 11
0.1565164905
 21
-0.1516068204
 31
0.5
  0
TEXT
  5
E0
330
1F
100
AcDbEntity
  8
DXF_US-2021_V5_MODEL_DXF_U
 62
    18
100
AcDbText
 10
-1.125
 20
4.5065711586
 30
0.0
 40
0.125
  1
CUTOUT TEMPLATE FOR MODEL #: 
  7
TEXT87
100
AcDbText
  0
TEXT
  5
E2
330
1F
100
AcDbEntity
  8
DXF_US-2021_V5_MODEL_DXF_U
 62
    18
100
AcDbText
 10
-0.75
 20
4.1494282929
 30
0.0
 40
0.3333333432674408
  1
US-2021
  7
TEXT88
100
AcDbText
  0
TEXT
  5
E4
330
1F
100
AcDbEntity
  8
DXF_US-2021_V5_MODEL_DXF_U
 62
    18
100
AcDbText
 10
-1.0
 20
3.4748251057
 30
0.0
 40
0.125
  1
UNDERMOUNT KITCHEN SINK 
  7
TEXT89
100
AcDbText
  0
DIMENSION
  5
E6
330
1F
100
AcDbEntity
  8
DXF_US-2021_V5_MODEL_DXF_U
 62
     5
100
AcDbDimension
  2
*D2
 10
10.3735
 20
-9.7053870023
 30
0.0
 11
1.061
 21
-9.7053870023
 31
0.0
 70
    32
  3
ROTATEDDIM13
100
AcDbAlignedDimension
 13
-8.2515
 23
-6.701902935999999
 33
0.0
 14
10.3735
 24
-6.701902936
 34
0.0
100
AcDbRotatedDimension
  0
DIMENSION
  5
F5
330
1F
100
AcDbEntity
  8
DXF_US-2021_V5_MODEL_DXF_U
 62
     5
100
AcDbDimension
  2
*D3
 10
-9.528097796499999
 20
9.329496622200015
 30
0.0
 11
-9.528097796499999
 21
0.3919983111000072
 31
0.0
 70
    32
  3
ROTATEDDIM14
100
AcDbAlignedDimension
 13
1.060851874
 23
-8.5455
 33
0.0
 14
1.060851374000002
 24
9.329496622200015
 34
0.0
 50
90.0
100
AcDbRotatedDimension
  0
LINE
  5
103
330
1F
100
AcDbEntity
  8
DXF_US-2021_V5_MODEL_DXF_U
 62
    18
100
AcDbLine
 10
-6.439148126
 20
-8.5455
 30
0.0
 11
8.560851874
 21
-8.5455
 31
0.0
  0
ARC
  5
104
330
1F
100
AcDbEntity
  8
DXF_US-2021_V5_MODEL_DXF_U
 62
    18
100
AcDbCircle
 10
1.060852662792232
 20
-14.50569938197842
 30
0.0
 40
23.83519600417846
100
AcDbArc
 50
72.5651461822997
 51
107.4348594044247
  0
LINE
  5
105
330
1F
100
AcDbEntity
  8
DXF_US-2021_V5_MODEL_DXF_U
 62
     3
100
AcDbLine
 10
-1.5546929499
 20
1.1041101987
 30
0.5
 11
-1.5546929499
 21
-0.1458898013
 31
0.5
  0
LINE
  5
106
330
1F
100
AcDbEntity
  8
DXF_US-2021_V5_MODEL_DXF_U
 62
    18
100
AcDbLine
 10
-8.2515
 20
5.235281064
 30
0.0
 11
-8.2515
 21
-6.701902935999999
 31
0.0
  0
LINE
  5
107
330
1F
100
AcDbEntity
  8
DXF_US-2021_V5_MODEL_DXF_U
 62
     1
100
AcDbLine
 10
2.4453070501
 20
-0.1458898013
 30
0.5
 11
2.4453070501
 21
0.1960690222
 31
0.5
  0
LINE
  5
108
330
1F
100
AcDbEntity
  8
DXF_US-2021_V5_MODEL_DXF_U
 62
    18
100
AcDbLine
 10
10.3735
 20
-6.701902936
 30
0.0
 11
10.3735
 21
5.235281063999999
 31
0.0
  0
LINE
  5
109
330
1F
100
AcDbEntity
  8
DXF_US-2021_V5_MODEL_DXF_U
 62
    18
100
AcDbLine
 10
-1.5991281692
 20
-2.0742845826
 30
0.5
 11
-1.2859308651
 21
-1.7610872785
 31
0.5
  0
LINE
  5
10A
330
1F
100
AcDbEntity
  8
DXF_US-2021_V5_MODEL_DXF_U
 62
    18
100
AcDbLine
 10
-1.5347690083
 20
-1.3417930114
 30
0.5
 11
-1.2215717042
 21
-1.0285957074
 31
0.5
  0
SOLID
  5
10B
330
1F
100
AcDbEntity
  8
DXF_US-2021_V5_MODEL_DXF_U
 62
    18
100
AcDbTrace
 10
0.1095807111
 20
1.1041101987
 30
0.5
 11
0.1808950185063845
 21
1.351740002154971
 31
0.5
 12
0.1095807111
 22
1.1041101987
 32
0.5
 13
0.2890367722020905
 23
1.289047410027853
 33
0.5
  0
POLYLINE
  5
10C
330
1F
100
AcDbEntity
  8
DXF_US-2021_V5_MODEL_DXF_U
 62
    18
100
AcDb3dPolyline
 66
     1
 10
0.0
 20
0.0
 30
0.0
 70
     8
  0
VERTEX
  5
10D
330
10C
100
AcDbEntity
  8
DXF_US-2021_V5_MODEL_DXF_U
 62
    18
100
AcDbVertex
100
AcDb3dPolylineVertex
 10
0.1095807105302811
 20
1.104110240936279
 30
0.5
 70
    32
  0
VERTEX
  5
10E
330
10C
100
AcDbEntity
  8
DXF_US-2021_V5_MODEL_DXF_U
 62
    18
100
AcDbVertex
100
AcDb3dPolylineVertex
 10
0.1808950155973434
 20
1.351740002632141
 30
0.5
 70
    32
  0
VERTEX
  5
10F
330
10C
100
AcDbEntity
  8
DXF_US-2021_V5_MODEL_DXF_U
 62
    18
100
AcDbVertex
100
AcDb3dPolylineVertex
 10
0.2890367805957794
 20
1.289047360420227
 30
0.5
 70
    32
  0
VERTEX
  5
110
330
10C
100
AcDbEntity
  8
DXF_US-2021_V5_MODEL_DXF_U
 62
    18
100
AcDbVertex
100
AcDb3dPolylineVertex
 10
0.1095807105302811
 20
1.104110240936279
 30
0.5
 70
    32
  0
VERTEX
  5
111
330
10C
100
AcDbEntity
  8
DXF_US-2021_V5_MODEL_DXF_U
 62
    18
100
AcDbVertex
100
AcDb3dPolylineVertex
 10
0.1095807105302811
 20
1.104110240936279
 30
0.5
 70
    32
  0
SEQEND
  5
112
330
10C
100
AcDbEntity
  8
DXF_US-2021_V5_MODEL_DXF_U
 62
    18
  0
POLYLINE
  5
113
330
1F
100
AcDbEntity
  8
DXF_US-2021_V5_MODEL_DXF_U
 62
    18
100
AcDb3dPolyline
 66
     1
 10
0.0
 20
0.0
 30
0.0
 70
     8
  0
VERTEX
  5
114
330
113
100
AcDbEntity
  8
DXF_US-2021_V5_MODEL_DXF_U
 62
    18
100
AcDbVertex
100
AcDb3dPolylineVertex
 10
0.1095807105302811
 20
1.104110240936279
 30
0.5
 70
    32
  0
VERTEX
  5
115
330
113
100
AcDbEntity
  8
DXF_US-2021_V5_MODEL_DXF_U
 62
    18
100
AcDbVertex
100
AcDb3dPolylineVertex
 10
0.1808950155973434
 20
1.351740002632141
 30
0.5
 70
    32
  0
VERTEX
  5
116
330
113
100
AcDbEntity
  8
DXF_US-2021_V5_MODEL_DXF_U
 62
    18
100
AcDbVertex
100
AcDb3dPolylineVertex
 10
0.2890367805957794
 20
1.289047360420227
 30
0.5
 70
    32
  0
VERTEX
  5
117
330
113
100
AcDbEntity
  8
DXF_US-2021_V5_MODEL_DXF_U
 62
    18
100
AcDbVertex
100
AcDb3dPolylineVertex
 10
0.1095807105302811
 20
1.104110240936279
 30
0.5
 70
    32
  0
VERTEX
  5
118
330
113
100
AcDbEntity
  8
DXF_US-2021_V5_MODEL_DXF_U
 62
    18
100
AcDbVertex
100
AcDb3dPolylineVertex
 10
0.1095807105302811
 20
1.104110240936279
 30
0.5
 70
    32
  0
SEQEND
  5
119
330
113
100
AcDbEntity
  8
DXF_US-2021_V5_MODEL_DXF_U
 62
    18
  0
POLYLINE
  5
11A
330
1F
100
AcDbEntity
  8
DXF_US-2021_V5_MODEL_DXF_U
 62
    18
100
AcDb3dPolyline
 66
     1
 10
0.0
 20
0.0
 30
0.0
 70
     8
  0
VERTEX
  5
11B
330
11A
100
AcDbEntity
  8
DXF_US-2021_V5_MODEL_DXF_U
 62
    18
100
AcDbVertex
100
AcDb3dPolylineVertex
 10
0.1095807105302811
 20
1.104110240936279
 30
0.5
 70
    32
  0
VERTEX
  5
11C
330
11A
100
AcDbEntity
  8
DXF_US-2021_V5_MODEL_DXF_U
 62
    18
100
AcDbVertex
100
AcDb3dPolylineVertex
 10
0.1808950155973434
 20
1.351740002632141
 30
0.5
 70
    32
  0
VERTEX
  5
11D
330
11A
100
AcDbEntity
  8
DXF_US-2021_V5_MODEL_DXF_U
 62
    18
100
AcDbVertex
100
AcDb3dPolylineVertex
 10
0.2890367805957794
 20
1.289047360420227
 30
0.5
 70
    32
  0
VERTEX
  5
11E
330
11A
100
AcDbEntity
  8
DXF_US-2021_V5_MODEL_DXF_U
 62
    18
100
AcDbVertex
100
AcDb3dPolylineVertex
 10
0.1095807105302811
 20
1.104110240936279
 30
0.5
 70
    32
  0
VERTEX
  5
11F
330
11A
100
AcDbEntity
  8
DXF_US-2021_V5_MODEL_DXF_U
 62
    18
100
AcDbVertex
100
AcDb3dPolylineVertex
 10
0.1095807105302811
 20
1.104110240936279
 30
0.5
 70
    32
  0
SEQEND
  5
120
330
11A
100
AcDbEntity
  8
DXF_US-2021_V5_MODEL_DXF_U
 62
    18
  0
POLYLINE
  5
121
330
1F
100
AcDbEntity
  8
DXF_US-2021_V5_MODEL_DXF_U
 62
    18
100
AcDb3dPolyline
 66
     1
 10
0.0
 20
0.0
 30
0.0
 70
     8
  0
VERTEX
  5
122
330
121
100
AcDbEntity
  8
DXF_US-2021_V5_MODEL_DXF_U
 62
    18
100
AcDbVertex
100
AcDb3dPolylineVertex
 10
0.1095807105302811
 20
1.104110240936279
 30
0.5
 70
    32
  0
VERTEX
  5
123
330
121
100
AcDbEntity
  8
DXF_US-2021_V5_MODEL_DXF_U
 62
    18
100
AcDbVertex
100
AcDb3dPolylineVertex
 10
0.1808950155973434
 20
1.351740002632141
 30
0.5
 70
    32
  0
VERTEX
  5
124
330
121
100
AcDbEntity
  8
DXF_US-2021_V5_MODEL_DXF_U
 62
    18
100
AcDbVertex
100
AcDb3dPolylineVertex
 10
0.2890367805957794
 20
1.289047360420227
 30
0.5
 70
    32
  0
VERTEX
  5
125
330
121
100
AcDbEntity
  8
DXF_US-2021_V5_MODEL_DXF_U
 62
    18
100
AcDbVertex
100
AcDb3dPolylineVertex
 10
0.1095807105302811
 20
1.104110240936279
 30
0.5
 70
    32
  0
VERTEX
  5
126
330
121
100
AcDbEntity
  8
DXF_US-2021_V5_MODEL_DXF_U
 62
    18
100
AcDbVertex
100
AcDb3dPolylineVertex
 10
0.1095807105302811
 20
1.104110240936279
 30
0.5
 70
    32
  0
SEQEND
  5
127
330
121
100
AcDbEntity
  8
DXF_US-2021_V5_MODEL_DXF_U
 62
    18
  0
SOLID
  5
128
330
1F
100
AcDbEntity
  8
DXF_US-2021_V5_MODEL_DXF_U
 62
    18
100
AcDbTrace
 10
-1.563091157
 20
-1.6641361697
 30
0.5
 11
-1.81760209680895
 21
-1.70451477192401
 31
0.5
 12
-1.563091157
 22
-1.6641361697
 32
0.5
 13
-1.806661328466255
 23
-1.579994494105209
 33
0.5
  0
POLYLINE
  5
129
330
1F
100
AcDbEntity
  8
DXF_US-2021_V5_MODEL_DXF_U
 62
    18
100
AcDb3dPolyline
 66
     1
 10
0.0
 20
0.0
 30
0.0
 70
     8
  0
VERTEX
  5
12A
330
129
100
AcDbEntity
  8
DXF_US-2021_V5_MODEL_DXF_U
 62
    18
100
AcDbVertex
100
AcDb3dPolylineVertex
 10
-1.563091158866882
 20
-1.664136171340942
 30
0.5
 70
    32
  0
VERTEX
  5
12B
330
129
100
AcDbEntity
  8
DXF_US-2021_V5_MODEL_DXF_U
 62
    18
100
AcDbVertex
100
AcDb3dPolylineVertex
 10
-1.817602038383484
 20
-1.704514741897583
 30
0.5
 70
    32
  0
VERTEX
  5
12C
330
129
100
AcDbEntity
  8
DXF_US-2021_V5_MODEL_DXF_U
 62
    18
100
AcDbVertex
100
AcDb3dPolylineVertex
 10
-1.806661367416382
 20
-1.579994440078735
 30
0.5
 70
    32
  0
VERTEX
  5
12D
330
129
100
AcDbEntity
  8
DXF_US-2021_V5_MODEL_DXF_U
 62
    18
100
AcDbVertex
100
AcDb3dPolylineVertex
 10
-1.563091158866882
 20
-1.664136171340942
 30
0.5
 70
    32
  0
VERTEX
  5
12E
330
129
100
AcDbEntity
  8
DXF_US-2021_V5_MODEL_DXF_U
 62
    18
100
AcDbVertex
100
AcDb3dPolylineVertex
 10
-1.563091158866882
 20
-1.664136171340942
 30
0.5
 70
    32
  0
SEQEND
  5
12F
330
129
100
AcDbEntity
  8
DXF_US-2021_V5_MODEL_DXF_U
 62
    18
  0
POLYLINE
  5
130
330
1F
100
AcDbEntity
  8
DXF_US-2021_V5_MODEL_DXF_U
 62
    18
100
AcDb3dPolyline
 66
     1
 10
0.0
 20
0.0
 30
0.0
 70
     8
  0
VERTEX
  5
131
330
130
100
AcDbEntity
  8
DXF_US-2021_V5_MODEL_DXF_U
 62
    18
100
AcDbVertex
100
AcDb3dPolylineVertex
 10
-1.563091158866882
 20
-1.664136171340942
 30
0.5
 70
    32
  0
VERTEX
  5
132
330
130
100
AcDbEntity
  8
DXF_US-2021_V5_MODEL_DXF_U
 62
    18
100
AcDbVertex
100
AcDb3dPolylineVertex
 10
-1.817602038383484
 20
-1.704514741897583
 30
0.5
 70
    32
  0
VERTEX
  5
133
330
130
100
AcDbEntity
  8
DXF_US-2021_V5_MODEL_DXF_U
 62
    18
100
AcDbVertex
100
AcDb3dPolylineVertex
 10
-1.806661367416382
 20
-1.579994440078735
 30
0.5
 70
    32
  0
VERTEX
  5
134
330
130
100
AcDbEntity
  8
DXF_US-2021_V5_MODEL_DXF_U
 62
    18
100
AcDbVertex
100
AcDb3dPolylineVertex
 10
-1.563091158866882
 20
-1.664136171340942
 30
0.5
 70
    32
  0
VERTEX
  5
135
330
130
100
AcDbEntity
  8
DXF_US-2021_V5_MODEL_DXF_U
 62
    18
100
AcDbVertex
100
AcDb3dPolylineVertex
 10
-1.563091158866882
 20
-1.664136171340942
 30
0.5
 70
    32
  0
SEQEND
  5
136
330
130
100
AcDbEntity
  8
DXF_US-2021_V5_MODEL_DXF_U
 62
    18
  0
POLYLINE
  5
137
330
1F
100
AcDbEntity
  8
DXF_US-2021_V5_MODEL_DXF_U
 62
    18
100
AcDb3dPolyline
 66
     1
 10
0.0
 20
0.0
 30
0.0
 70
     8
  0
VERTEX
  5
138
330
137
100
AcDbEntity
  8
DXF_US-2021_V5_MODEL_DXF_U
 62
    18
100
AcDbVertex
100
AcDb3dPolylineVertex
 10
-1.563091158866882
 20
-1.664136171340942
 30
0.5
 70
    32
  0
VERTEX
  5
139
330
137
100
AcDbEntity
  8
DXF_US-2021_V5_MODEL_DXF_U
 62
    18
100
AcDbVertex
100
AcDb3dPolylineVertex
 10
-1.817602038383484
 20
-1.704514741897583
 30
0.5
 70
    32
  0
VERTEX
  5
13A
330
137
100
AcDbEntity
  8
DXF_US-2021_V5_MODEL_DXF_U
 62
    18
100
AcDbVertex
100
AcDb3dPolylineVertex
 10
-1.806661367416382
 20
-1.579994440078735
 30
0.5
 70
    32
  0
VERTEX
  5
13B
330
137
100
AcDbEntity
  8
DXF_US-2021_V5_MODEL_DXF_U
 62
    18
100
AcDbVertex
100
AcDb3dPolylineVertex
 10
-1.563091158866882
 20
-1.664136171340942
 30
0.5
 70
    32
  0
VERTEX
  5
13C
330
137
100
AcDbEntity
  8
DXF_US-2021_V5_MODEL_DXF_U
 62
    18
100
AcDbVertex
100
AcDb3dPolylineVertex
 10
-1.563091158866882
 20
-1.664136171340942
 30
0.5
 70
    32
  0
SEQEND
  5
13D
330
137
100
AcDbEntity
  8
DXF_US-2021_V5_MODEL_DXF_U
 62
    18
  0
POLYLINE
  5
13E
330
1F
100
AcDbEntity
  8
DXF_US-2021_V5_MODEL_DXF_U
 62
    18
100
AcDb3dPolyline
 66
     1
 10
0.0
 20
0.0
 30
0.0
 70
     8
  0
VERTEX
  5
13F
330
13E
100
AcDbEntity
  8
DXF_US-2021_V5_MODEL_DXF_U
 62
    18
100
AcDbVertex
100
AcDb3dPolylineVertex
 10
-1.563091158866882
 20
-1.664136171340942
 30
0.5
 70
    32
  0
VERTEX
  5
140
330
13E
100
AcDbEntity
  8
DXF_US-2021_V5_MODEL_DXF_U
 62
    18
100
AcDbVertex
100
AcDb3dPolylineVertex
 10
-1.817602038383484
 20
-1.704514741897583
 30
0.5
 70
    32
  0
VERTEX
  5
141
330
13E
100
AcDbEntity
  8
DXF_US-2021_V5_MODEL_DXF_U
 62
    18
100
AcDbVertex
100
AcDb3dPolylineVertex
 10
-1.806661367416382
 20
-1.579994440078735
 30
0.5
 70
    32
  0
VERTEX
  5
142
330
13E
100
AcDbEntity
  8
DXF_US-2021_V5_MODEL_DXF_U
 62
    18
100
AcDbVertex
100
AcDb3dPolylineVertex
 10
-1.563091158866882
 20
-1.664136171340942
 30
0.5
 70
    32
  0
VERTEX
  5
143
330
13E
100
AcDbEntity
  8
DXF_US-2021_V5_MODEL_DXF_U
 62
    18
100
AcDbVertex
100
AcDb3dPolylineVertex
 10
-1.563091158866882
 20
-1.664136171340942
 30
0.5
 70
    32
  0
SEQEND
  5
144
330
13E
100
AcDbEntity
  8
DXF_US-2021_V5_MODEL_DXF_U
 62
    18
  0
VIEWPORT
  5
3F
330
1B
100
AcDbEntity
 67
     1
  8
0
100
AcDbViewport
 10
0.0
 20
0.0
 30
0.0
 40
1.0
 41
1.0
 68
     1
 69
     1
1001
ACAD
1000
MVIEW
1002
{
1070
    16
1010
0.0
1020
0.0
1030
0.0
1010
0.0
1020
0.0
1030
1.0
1040
0.0
1040
1.0
1040
0.0
1040
0.0
1040
50.0
1040
0.0
1040
0.0
1070
     0
1070
   100
1070
     0
1070
     3
1070
     0
1070
     0
1070
     0
1070
     0
1040
0.0
1040
0.0
1040
0.0
1040
0.5
1040
0.5
1040
0.0
1040
0.0
1070
     0
1002
{
1002
}
1002
}
  0
ENDSEC
  0
SECTION
  2
OBJECTS
  0
DICTIONARY
  5
C
330
0
100
AcDbDictionary
  3
ACAD_GROUP
350
D
  3
ACAD_LAYOUT
350
1A
  3
ACAD_MLINESTYLE
350
17
  3
ACAD_PLOTSETTINGS
350
19
  3
ACAD_TABLESTYLE
350
165
  3
ACAD_VISUALSTYLE
350
2A
  3
ACDBHEADERROUNDTRIPXREC
350
145
  0
DICTIONARY
  5
D
102
{ACAD_REACTORS
330
C
102
}
330
C
100
AcDbDictionary
  0
DICTIONARY
  5
1A
102
{ACAD_REACTORS
330
C
102
}
330
C
100
AcDbDictionary
  0
DICTIONARY
  5
17
102
{ACAD_REACTORS
330
C
102
}
330
C
100
AcDbDictionary
  3
STANDARD
350
18
  0
DICTIONARY
  5
19
102
{ACAD_REACTORS
330
C
102
}
330
C
100
AcDbDictionary
  0
DICTIONARY
  5
165
102
{ACAD_REACTORS
330
C
102
}
330
C
100
AcDbDictionary
  0
DICTIONARY
  5
2A
102
{ACAD_REACTORS
330
C
102
}
330
C
100
AcDbDictionary
  3
2DWIREFRAME
350
2F
  3
3D_HIDDEN
350
31
  3
3DWIREFRAME
350
30
  3
BASIC
350
32
  3
BRIGHTEN
350
36
  3
COLORCHANGE
350
3A
  3
CONCEPTUAL
350
34
  3
DIM
350
35
  3
FACEPATTERN
350
39
  3
FLAT
350
2B
  3
FLATWITHEDGES
350
2C
  3
GOURAUD
350
2D
  3
GOURAUDWITHEDGES
350
2E
  3
LINEPATTERN
350
38
  3
REALISTIC
350
33
  3
THICKEN
350
37
  0
DICTIONARY
  5
145
102
{ACAD_REACTORS
330
C
102
}
330
C
100
AcDbDictionary
  3
CEPSNTYPE
350
14E
  3
DIMSTYLEDATA
350
164
  3
FINGERPRINTGUID
350
14F
  3
HYPERLINKBASE
350
148
  3
INSUNITS
350
14D
  3
LAYOUTDICT
350
14A
  3
LWETCUNION
350
14C
  3
PLOTSETDICT
350
14B
  3
PSVPSCALE
350
151
  3
PUCSBASE
350
154
  3
PUCSORGBACK
350
15A
  3
PUCSORGBOTTOM
350
156
  3
PUCSORGFRONT
350
159
  3
PUCSORGLEFT
350
157
  3
PUCSORGRIGHT
350
158
  3
PUCSORGTOP
350
155
  3
PUCSORTHOREF
350
152
  3
PUCSORTHOVIEW
350
153
  3
STYLESHEET
350
149
  3
TSTACKALIGN
350
146
  3
TSTACKSIZE
350
147
  3
UCSBASE
350
15D
  3
UCSORGBACK
350
163
  3
UCSORGBOTTOM
350
15F
  3
UCSORGFRONT
350
162
  3
UCSORGLEFT
350
160
  3
UCSORGRIGHT
350
161
  3
UCSORGTOP
350
15E
  3
UCSORTHOREF
350
15B
  3
UCSORTHOVIEW
350
15C
  3
VERSIONGUID
350
150
  0
MLINESTYLE
  5
18
102
{ACAD_REACTORS
330
17
102
}
330
17
100
AcDbMlineStyle
  2
Standard
 70
     0
  3

 62
   256
 51
90.0
 52
90.0
 71
     2
 49
0.5
 62
   256
  6
BYLAYER
 49
-0.5
 62
   256
  6
BYLAYER
  0
VISUALSTYLE
  5
2F
102
{ACAD_REACTORS
330
2A
102
}
330
2A
100
AcDbVisualStyle
  2
2dWireframe
 70
     4
 71
     0
 72
     2
 73
     0
 90
        0
 40
-0.6
 41
-30.0
 62
     5
 63
     7
 74
     1
 91
        4
 64
     7
 65
   257
 75
     1
175
     1
 42
1.0
 92
        0
 66
   257
 43
1.0
 76
     1
 77
     6
 78
     2
 67
     7
 79
     5
170
     0
171
     0
290
     0
174
     0
 93
        1
 44
0.0
173
     0
291
     0
 45
0.0
1001
ACAD
1000
AcDbSavedByObjectVersion
1070
     0
  0
VISUALSTYLE
  5
31
102
{ACAD_REACTORS
330
2A
102
}
330
2A
100
AcDbVisualStyle
  2
3D Hidden
 70
     6
 71
     1
 72
     2
 73
     2
 90
        0
 40
-0.6
 41
-30.0
 62
     5
 63
     7
 74
     2
 91
        2
 64
     7
 65
   257
 75
     2
175
     1
 42
40.0
 92
        0
 66
   257
 43
1.0
 76
     1
 77
     6
 78
     2
 67
     7
 79
     3
170
     0
171
     0
290
     0
174
     0
 93
        1
 44
0.0
173
     0
291
     0
 45
0.0
1001
ACAD
1000
AcDbSavedByObjectVersion
1070
     0
  0
VISUALSTYLE
  5
30
102
{ACAD_REACTORS
330
2A
102
}
330
2A
100
AcDbVisualStyle
  2
3dWireframe
 70
     5
 71
     0
 72
     2
 73
     0
 90
        0
 40
-0.6
 41
-30.0
 62
     5
 63
     7
 74
     1
 91
        4
 64
     7
 65
   257
 75
     1
175
     1
 42
1.0
 92
        0
 66
   257
 43
1.0
 76
     1
 77
     6
 78
     2
 67
     7
 79
     5
170
     0
171
     0
290
     0
174
     0
 93
        1
 44
0.0
173
     0
291
     0
 45
0.0
1001
ACAD
1000
AcDbSavedByObjectVersion
1070
     0
  0
VISUALSTYLE
  5
32
102
{ACAD_REACTORS
330
2A
102
}
330
2A
100
AcDbVisualStyle
  2
Basic
 70
     7
 71
     1
 72
     0
 73
     1
 90
        0
 40
-0.6
 41
-30.0
 62
     5
 63
     7
 74
     0
 91
        4
 64
     7
 65
   257
 75
     1
175
     1
 42
1.0
 92
        8
 66
     7
 43
1.0
 76
     1
 77
     6
 78
     2
 67
     7
 79
     5
170
     0
171
     0
290
     0
174
     0
 93
        1
 44
0.0
173
     0
291
     1
 45
0.0
1001
ACAD
1000
AcDbSavedByObjectVersion
1070
     0
  0
VISUALSTYLE
  5
36
102
{ACAD_REACTORS
330
2A
102
}
330
2A
100
AcDbVisualStyle
  2
Brighten
 70
    12
 71
     2
 72
     2
 73
     0
 90
        0
 40
-0.6
 41
-30.0
 62
     5
 63
     7
 74
     1
 91
        4
 64
     7
 65
   257
 75
     1
175
     1
 42
1.0
 92
        8
 66
     7
 43
1.0
 76
     1
 77
     6
 78
     2
 67
     7
 79
     5
170
     0
171
     0
290
     0
174
     0
 93
        1
 44
50.0
173
     0
291
     1
 45
0.0
1001
ACAD
1000
AcDbSavedByObjectVersion
1070
     0
  0
VISUALSTYLE
  5
3A
102
{ACAD_REACTORS
330
2A
102
}
330
2A
100
AcDbVisualStyle
  2
ColorChange
 70
    16
 71
     2
 72
     2
 73
     3
 90
        0
 40
-0.6
 41
-30.0
 62
     5
 63
     8
 74
     1
 91
        4
 64
     7
 65
   257
 75
     1
175
     1
 42
1.0
 92
        8
 66
     8
 43
1.0
 76
     1
 77
     6
 78
     2
 67
     7
 79
     5
170
     0
171
     0
290
     0
174
     0
 93
        1
 44
0.0
173
     0
291
     1
 45
0.0
1001
ACAD
1000
AcDbSavedByObjectVersion
1070
     0
  0
VISUALSTYLE
  5
34
102
{ACAD_REACTORS
330
2A
102
}
330
2A
100
AcDbVisualStyle
  2
Conceptual
 70
     9
 71
     3
 72
     2
 73
     0
 90
        0
 40
-0.6
 41
-30.0
 62
     5
 63
     7
 74
     2
 91
        2
 64
     7
 65
   257
 75
     1
175
     1
 42
40.0
 92
        8
 66
     7
 43
1.0
 76
     1
 77
     6
 78
     2
 67
     7
 79
     3
170
     0
171
     0
290
     0
174
     0
 93
        1
 44
0.0
173
     0
291
     0
 45
0.0
1001
ACAD
1000
AcDbSavedByObjectVersion
1070
     0
  0
VISUALSTYLE
  5
35
102
{ACAD_REACTORS
330
2A
102
}
330
2A
100
AcDbVisualStyle
  2
Dim
 70
    11
 71
     2
 72
     2
 73
     0
 90
        0
 40
-0.6
 41
-30.0
 62
     5
 63
     7
 74
     1
 91
        4
 64
     7
 65
   257
 75
     1
175
     1
 42
1.0
 92
        8
 66
     7
 43
1.0
 76
     1
 77
     6
 78
     2
 67
     7
 79
     5
170
     0
171
     0
290
     0
174
     0
 93
        1
 44
-50.0
173
     0
291
     1
 45
0.0
1001
ACAD
1000
AcDbSavedByObjectVersion
1070
     0
  0
VISUALSTYLE
  5
39
102
{ACAD_REACTORS
330
2A
102
}
330
2A
100
AcDbVisualStyle
  2
Facepattern
 70
    15
 71
     2
 72
     2
 73
     0
 90
        0
 40
-0.6
 41
-30.0
 62
     5
 63
     7
 74
     1
 91
        4
 64
     7
 65
   257
 75
     1
175
     1
 42
1.0
 92
        8
 66
     7
 43
1.0
 76
     1
 77
     6
 78
     2
 67
     7
 79
     5
170
     0
171
     0
290
     0
174
     0
 93
        1
 44
0.0
173
     0
291
     1
 45
0.0
1001
ACAD
1000
AcDbSavedByObjectVersion
1070
     0
  0
VISUALSTYLE
  5
2B
102
{ACAD_REACTORS
330
2A
102
}
330
2A
100
AcDbVisualStyle
  2
Flat
 70
     0
 71
     2
 72
     1
 73
     1
 90
        2
 40
-0.6
 41
30.0
 62
     5
 63
     7
 74
     0
 91
        4
 64
     7
 65
   257
 75
     1
175
     1
 42
1.0
 92
        8
 66
     7
 43
1.0
 76
     1
 77
     6
 78
     2
 67
     7
 79
     5
170
     0
171
     0
290
     0
174
     0
 93
       13
 44
0.0
173
     0
291
     1
 45
0.0
1001
ACAD
1000
AcDbSavedByObjectVersion
1070
     0
  0
VISUALSTYLE
  5
2C
102
{ACAD_REACTORS
330
2A
102
}
330
2A
100
AcDbVisualStyle
  2
FlatWithEdges
 70
     1
 71
     2
 72
     1
 73
     1
 90
        2
 40
-0.6
 41
30.0
 62
     5
 63
     7
 74
     1
 91
        4
 64
     7
 65
   257
 75
     1
175
     1
 42
1.0
 92
        0
 66
   257
 43
1.0
 76
     1
 77
     6
 78
     2
 67
     7
 79
     5
170
     0
171
     0
290
     0
174
     0
 93
       13
 44
0.0
173
     0
291
     1
 45
0.0
1001
ACAD
1000
AcDbSavedByObjectVersion
1070
     0
  0
VISUALSTYLE
  5
2D
102
{ACAD_REACTORS
330
2A
102
}
330
2A
100
AcDbVisualStyle
  2
Gouraud
 70
     2
 71
     2
 72
     2
 73
     1
 90
        2
 40
-0.6
 41
30.0
 62
     5
 63
     7
 74
     0
 91
        4
 64
     7
 65
   257
 75
     1
175
     1
 42
1.0
 92
        0
 66
     7
 43
1.0
 76
     1
 77
     6
 78
     2
 67
     7
 79
     5
170
     0
171
     0
290
     0
174
     0
 93
       13
 44
0.0
173
     0
291
     1
 45
0.0
1001
ACAD
1000
AcDbSavedByObjectVersion
1070
     0
  0
VISUALSTYLE
  5
2E
102
{ACAD_REACTORS
330
2A
102
}
330
2A
100
AcDbVisualStyle
  2
GouraudWithEdges
 70
     3
 71
     2
 72
     2
 73
     1
 90
        2
 40
-0.6
 41
30.0
 62
     5
 63
     7
 74
     1
 91
        4
 64
     7
 65
   257
 75
     1
175
     1
 42
1.0
 92
        0
 66
   257
 43
1.0
 76
     1
 77
     6
 78
     2
 67
     7
 79
     5
170
     0
171
     0
290
     0
174
     0
 93
       13
 44
0.0
173
     0
291
     1
 45
0.0
1001
ACAD
1000
AcDbSavedByObjectVersion
1070
     0
  0
VISUALSTYLE
  5
38
102
{ACAD_REACTORS
330
2A
102
}
330
2A
100
AcDbVisualStyle
  2
Linepattern
 70
    14
 71
     2
 72
     2
 73
     0
 90
        0
 40
-0.6
 41
-30.0
 62
     5
 63
     7
 74
     1
 91
        4
 64
     7
 65
   257
 75
     7
175
     7
 42
1.0
 92
        8
 66
     7
 43
1.0
 76
     1
 77
     6
 78
     2
 67
     7
 79
     5
170
     0
171
     0
290
     0
174
     0
 93
        1
 44
0.0
173
     0
291
     1
 45
0.0
1001
ACAD
1000
AcDbSavedByObjectVersion
1070
     0
  0
VISUALSTYLE
  5
33
102
{ACAD_REACTORS
330
2A
102
}
330
2A
100
AcDbVisualStyle
  2
Realistic
 70
     8
 71
     2
 72
     2
 73
     0
 90
        0
 40
-0.6
 41
-30.0
 62
     5
 63
     7
 74
     1
 91
        0
 64
     7
 65
   257
 75
     1
175
     1
 42
1.0
 92
        8
 66
     8
 43
1.0
 76
     1
 77
     6
 78
     2
 67
     7
 79
     5
170
     0
171
     0
290
     0
174
     0
 93
       13
 44
0.0
173
     0
291
     0
 45
0.0
1001
ACAD
1000
AcDbSavedByObjectVersion
1070
     0
  0
VISUALSTYLE
  5
37
102
{ACAD_REACTORS
330
2A
102
}
330
2A
100
AcDbVisualStyle
  2
Thicken
 70
    13
 71
     2
 72
     2
 73
     0
 90
        0
 40
-0.6
 41
-30.0
 62
     5
 63
     7
 74
     1
 91
        4
 64
     7
 65
   257
 75
     1
175
     1
 42
1.0
 92
       12
 66
     7
 43
1.0
 76
     1
 77
     6
 78
     2
 67
     7
 79
     5
170
     0
171
     0
290
     0
174
     0
 93
        1
 44
0.0
173
     0
291
     1
 45
0.0
1001
ACAD
1000
AcDbSavedByObjectVersion
1070
     0
  0
XRECORD
  5
14E
102
{ACAD_REACTORS
330
145
102
}
330
145
100
AcDbXrecord
 90
        0
  0
XRECORD
  5
164
102
{ACAD_REACTORS
330
145
102
}
330
145
100
AcDbXrecord
1000
DSTYLE
1002
{
1070
   340
340
11
1002
}
  0
XRECORD
  5
14F
102
{ACAD_REACTORS
330
145
102
}
330
145
100
AcDbXrecord
  1
{37E7EDD6-F816-4279-9E44-88B6EA872F37}
  0
XRECORD
  5
148
102
{ACAD_REACTORS
330
145
102
}
330
145
100
AcDbXrecord
  1

  0
XRECORD
  5
14D
102
{ACAD_REACTORS
330
145
102
}
330
145
100
AcDbXrecord
 90
        1
  0
XRECORD
  5
14A
102
{ACAD_REACTORS
330
145
102
}
330
145
100
AcDbXrecord
340
1A
  0
XRECORD
  5
14C
102
{ACAD_REACTORS
330
145
102
}
330
145
100
AcDbXrecord
 90
    10781
  0
XRECORD
  5
14B
102
{ACAD_REACTORS
330
145
102
}
330
145
100
AcDbXrecord
340
19
  0
XRECORD
  5
151
102
{ACAD_REACTORS
330
145
102
}
330
145
100
AcDbXrecord
 40
0.0
  0
XRECORD
  5
154
102
{ACAD_REACTORS
330
145
102
}
330
145
100
AcDbXrecord
340
0
  0
XRECORD
  5
15A
102
{ACAD_REACTORS
330
145
102
}
330
145
100
AcDbXrecord
 10
0.0
 20
0.0
 30
0.0
  0
XRECORD
  5
156
102
{ACAD_REACTORS
330
145
102
}
330
145
100
AcDbXrecord
 10
0.0
 20
0.0
 30
0.0
  0
XRECORD
  5
159
102
{ACAD_REACTORS
330
145
102
}
330
145
100
AcDbXrecord
 10
0.0
 20
0.0
 30
0.0
  0
XRECORD
  5
157
102
{ACAD_REACTORS
330
145
102
}
330
145
100
AcDbXrecord
 10
0.0
 20
0.0
 30
0.0
  0
XRECORD
  5
158
102
{ACAD_REACTORS
330
145
102
}
330
145
100
AcDbXrecord
 10
0.0
 20
0.0
 30
0.0
  0
XRECORD
  5
155
102
{ACAD_REACTORS
330
145
102
}
330
145
100
AcDbXrecord
 10
0.0
 20
0.0
 30
0.0
  0
XRECORD
  5
152
102
{ACAD_REACTORS
330
145
102
}
330
145
100
AcDbXrecord
340
0
  0
XRECORD
  5
153
102
{ACAD_REACTORS
330
145
102
}
330
145
100
AcDbXrecord
 70
     0
  0
XRECORD
  5
149
102
{ACAD_REACTORS
330
145
102
}
330
145
100
AcDbXrecord
  1

  0
XRECORD
  5
146
102
{ACAD_REACTORS
330
145
102
}
330
145
100
AcDbXrecord
 90
        1
  0
XRECORD
  5
147
102
{ACAD_REACTORS
330
145
102
}
330
145
100
AcDbXrecord
 90
       70
  0
XRECORD
  5
15D
102
{ACAD_REACTORS
330
145
102
}
330
145
100
AcDbXrecord
340
0
  0
XRECORD
  5
163
102
{ACAD_REACTORS
330
145
102
}
330
145
100
AcDbXrecord
 10
0.0
 20
0.0
 30
0.0
  0
XRECORD
  5
15F
102
{ACAD_REACTORS
330
145
102
}
330
145
100
AcDbXrecord
 10
0.0
 20
0.0
 30
0.0
  0
XRECORD
  5
162
102
{ACAD_REACTORS
330
145
102
}
330
145
100
AcDbXrecord
 10
0.0
 20
0.0
 30
0.0
  0
XRECORD
  5
160
102
{ACAD_REACTORS
330
145
102
}
330
145
100
AcDbXrecord
 10
0.0
 20
0.0
 30
0.0
  0
XRECORD
  5
161
102
{ACAD_REACTORS
330
145
102
}
330
145
100
AcDbXrecord
 10
0.0
 20
0.0
 30
0.0
  0
XRECORD
  5
15E
102
{ACAD_REACTORS
330
145
102
}
330
145
100
AcDbXrecord
 10
0.0
 20
0.0
 30
0.0
  0
XRECORD
  5
15B
102
{ACAD_REACTORS
330
145
102
}
330
145
100
AcDbXrecord
340
0
  0
XRECORD
  5
15C
102
{ACAD_REACTORS
330
145
102
}
330
145
100
AcDbXrecord
 70
     0
  0
XRECORD
  5
150
102
{ACAD_REACTORS
330
145
102
}
330
145
100
AcDbXrecord
  1
{FAEB1C32-E019-11D5-929B-00C0DF256EC4}
  0
ENDSEC
  0
EOF
