  0
SECTION
  2
HEADER
  9
$ACADVER
  1
AC1014
  9
$ACADMAINTVER
 70
     9
  9
$DWGCODEPAGE
  3
ANSI_1252
  9
$INSBASE
 10
0.0
 20
0.0
 30
0.0
  9
$EXTMIN
 10
-14.9033177945161
 20
-10.1824743001
 30
-1.0
  9
$EXTMAX
 10
17.15918225064445
 20
8.9215
 30
2.310805065196317
  9
$LIMMIN
 10
0.0
 20
0.0
  9
$LIMMAX
 10
12.0
 20
9.0
  9
$ORTHOMODE
 70
     0
  9
$REGENMODE
 70
     1
  9
$FILLMODE
 70
     1
  9
$QTEXTMODE
 70
     0
  9
$MIRRTEXT
 70
     1
  9
$DRAGMODE
 70
     2
  9
$LTSCALE
 40
1.0
  9
$OSMODE
 70
    37
  9
$ATTMODE
 70
     1
  9
$TEXTSIZE
 40
0.2
  9
$TRACEWID
 40
0.05
  9
$TEXTSTYLE
  7
STANDARD
  9
$CLAYER
  8
0
  9
$CELTYPE
  6
BYLAYER
  9
$CECOLOR
 62
   256
  9
$CELTSCALE
 40
1.0
  9
$DELOBJ
 70
     1
  9
$DISPSILH
 70
     0
  9
$DIMSCALE
 40
1.0
  9
$DIMASZ
 40
0.18
  9
$DIMEXO
 40
0.0625
  9
$DIMDLI
 40
0.38
  9
$DIMRND
 40
0.0
  9
$DIMDLE
 40
0.0
  9
$DIMEXE
 40
0.18
  9
$DIMTP
 40
0.0
  9
$DIMTM
 40
0.0
  9
$DIMTXT
 40
0.18
  9
$DIMCEN
 40
0.09
  9
$DIMTSZ
 40
0.0
  9
$DIMTOL
 70
     0
  9
$DIMLIM
 70
     0
  9
$DIMTIH
 70
     1
  9
$DIMTOH
 70
     1
  9
$DIMSE1
 70
     0
  9
$DIMSE2
 70
     0
  9
$DIMTAD
 70
     0
  9
$DIMZIN
 70
     0
  9
$DIMBLK
  1

  9
$DIMASO
 70
     1
  9
$DIMSHO
 70
     1
  9
$DIMPOST
  1

  9
$DIMAPOST
  1

  9
$DIMALT
 70
     0
  9
$DIMALTD
 70
     2
  9
$DIMALTF
 40
25.4
  9
$DIMLFAC
 40
1.0
  9
$DIMTOFL
 70
     0
  9
$DIMTVP
 40
0.0
  9
$DIMTIX
 70
     0
  9
$DIMSOXD
 70
     0
  9
$DIMSAH
 70
     0
  9
$DIMBLK1
  1

  9
$DIMBLK2
  1

  9
$DIMSTYLE
  2
STANDARD
  9
$DIMCLRD
 70
     0
  9
$DIMCLRE
 70
     0
  9
$DIMCLRT
 70
     0
  9
$DIMTFAC
 40
1.0
  9
$DIMGAP
 40
0.09
  9
$DIMJUST
 70
     0
  9
$DIMSD1
 70
     0
  9
$DIMSD2
 70
     0
  9
$DIMTOLJ
 70
     1
  9
$DIMTZIN
 70
     0
  9
$DIMALTZ
 70
     0
  9
$DIMALTTZ
 70
     0
  9
$DIMFIT
 70
     3
  9
$DIMUPT
 70
     0
  9
$DIMUNIT
 70
     2
  9
$DIMDEC
 70
     4
  9
$DIMTDEC
 70
     4
  9
$DIMALTU
 70
     2
  9
$DIMALTTD
 70
     2
  9
$DIMTXSTY
  7
STANDARD
  9
$DIMAUNIT
 70
     0
  9
$LUNITS
 70
     2
  9
$LUPREC
 70
     4
  9
$SKETCHINC
 40
0.1
  9
$FILLETRAD
 40
0.5
  9
$AUNITS
 70
     0
  9
$AUPREC
 70
     0
  9
$MENU
  1
.
  9
$ELEVATION
 40
0.0
  9
$PELEVATION
 40
0.0
  9
$THICKNESS
 40
0.0
  9
$LIMCHECK
 70
     0
  9
$CHAMFERA
 40
0.5
  9
$CHAMFERB
 40
0.5
  9
$CHAMFERC
 40
1.0
  9
$CHAMFERD
 40
0.0
  9
$SKPOLY
 70
     0
  9
$TDCREATE
 40
2305814.1471875
  9
$TDUPDATE
 40
2305814.147187511
  9
$TDINDWG
 40
0.0000000116
  9
$TDUSRTIMER
 40
0.0000000116
  9
$USRTIMER
 70
     1
  9
$ANGBASE
 50
0.0
  9
$ANGDIR
 70
     0
  9
$PDMODE
 70
     0
  9
$PDSIZE
 40
0.0
  9
$PLINEWID
 40
0.0
  9
$COORDS
 70
     1
  9
$SPLFRAME
 70
     0
  9
$SPLINETYPE
 70
     6
  9
$SPLINESEGS
 70
     8
  9
$ATTDIA
 70
     0
  9
$ATTREQ
 70
     1
  9
$HANDLING
 70
     1
  9
$HANDSEED
  5
16A
  9
$SURFTAB1
 70
     6
  9
$SURFTAB2
 70
     6
  9
$SURFTYPE
 70
     6
  9
$SURFU
 70
     6
  9
$SURFV
 70
     6
  9
$UCSNAME
  2

  9
$UCSORG
 10
0.0
 20
0.0
 30
0.0
  9
$UCSXDIR
 10
1.0
 20
0.0
 30
0.0
  9
$UCSYDIR
 10
0.0
 20
1.0
 30
0.0
  9
$PUCSNAME
  2

  9
$PUCSORG
 10
0.0
 20
0.0
 30
0.0
  9
$PUCSXDIR
 10
1.0
 20
0.0
 30
0.0
  9
$PUCSYDIR
 10
0.0
 20
1.0
 30
0.0
  9
$USERI1
 70
     0
  9
$USERI2
 70
     0
  9
$USERI3
 70
     0
  9
$USERI4
 70
     0
  9
$USERI5
 70
     0
  9
$USERR1
 40
0.0
  9
$USERR2
 40
0.0
  9
$USERR3
 40
0.0
  9
$USERR4
 40
0.0
  9
$USERR5
 40
0.0
  9
$WORLDVIEW
 70
     1
  9
$SHADEDGE
 70
     3
  9
$SHADEDIF
 70
    70
  9
$TILEMODE
 70
     1
  9
$MAXACTVP
 70
    64
  9
$PINSBASE
 10
0.0
 20
0.0
 30
0.0
  9
$PLIMCHECK
 70
     0
  9
$PEXTMIN
 10
1.000000000000000E+20
 20
1.000000000000000E+20
 30
1.000000000000000E+20
  9
$PEXTMAX
 10
-1.000000000000000E+20
 20
-1.000000000000000E+20
 30
-1.000000000000000E+20
  9
$PLIMMIN
 10
0.0
 20
0.0
  9
$PLIMMAX
 10
12.0
 20
9.0
  9
$UNITMODE
 70
     0
  9
$VISRETAIN
 70
     1
  9
$PLINEGEN
 70
     0
  9
$PSLTSCALE
 70
     1
  9
$TREEDEPTH
 70
  3020
  9
$PICKSTYLE
 70
     1
  9
$CMLSTYLE
  2
STANDARD
  9
$CMLJUST
 70
     0
  9
$CMLSCALE
 40
1.0
  9
$PROXYGRAPHICS
 70
     1
  9
$MEASUREMENT
 70
     0
  0
ENDSEC
  0
SECTION
  2
CLASSES
  0
CLASS
  1
ACDBDICTIONARYWDFLT
  2
AcDbDictionaryWithDefault
  3
ObjectDBX Classes
 90
        0
280
     0
281
     0
  0
CLASS
  1
VISUALSTYLE
  2
AcDbVisualStyle
  3
ObjectDBX Classes
 90
     4095
280
     0
281
     0
  0
CLASS
  1
XRECORD
  2
AcDbXrecord
  3
AutoCAD 2000
 90
        0
280
     0
281
     0
  0
CLASS
  1
LWPOLYLINE
  2
AcDbPolyline
  3
AutoCAD 2000
 90
        0
280
     0
281
     1
  0
CLASS
  1
HATCH
  2
AcDbHatch
  3
AutoCAD 2000
 90
        0
280
     0
281
     1
  0
CLASS
  1
ACDBPLACEHOLDER
  2
AcDbPlaceHolder
  3
ObjectDBX Classes
 90
        0
280
     0
281
     0
  0
CLASS
  1
LAYOUT
  2
AcDbLayout
  3
ObjectDBX Classes
 90
        0
280
     0
281
     0
  0
ENDSEC
  0
SECTION
  2
TABLES
  0
TABLE
  2
VPORT
  5
8
330
0
100
AcDbSymbolTable
 70
     1
  0
VPORT
  5
29
330
8
100
AcDbSymbolTableRecord
100
AcDbViewportTableRecord
  2
*ACTIVE
 70
     0
 10
0.0
 20
0.0
 11
1.0
 21
1.0
 12
0.0
 22
0.0
 13
0.0
 23
0.0
 14
0.5
 24
0.5
 15
0.5
 25
0.5
 16
0.0
 26
0.0
 36
1.0
 17
1.127932228064175
 27
-0.6304871500499996
 37
0.0
 40
19.486053786102
 41
1.69238864875046
 42
50.0
 43
0.0
 44
0.0
 50
0.0
 51
0.0
 71
     0
 72
   100
 73
     1
 74
     3
 75
     0
 76
     0
 77
     0
 78
     0
  0
ENDTAB
  0
TABLE
  2
LTYPE
  5
5
330
0
100
AcDbSymbolTable
 70
    75
  0
LTYPE
  5
14
330
5
100
AcDbSymbolTableRecord
100
AcDbLinetypeTableRecord
  2
BYBLOCK
 70
     0
  3

 72
    65
 73
     0
 40
0.0
  0
LTYPE
  5
15
330
5
100
AcDbSymbolTableRecord
100
AcDbLinetypeTableRecord
  2
BYLAYER
 70
     0
  3

 72
    65
 73
     0
 40
0.0
  0
LTYPE
  5
16
330
5
100
AcDbSymbolTableRecord
100
AcDbLinetypeTableRecord
  2
CONTINUOUS
 70
     0
  3
Solid line
 72
    65
 73
     0
 40
0.0
  0
LTYPE
  5
40
330
5
100
AcDbSymbolTableRecord
100
AcDbLinetypeTableRecord
  2
BORDER
 70
     0
  3
__ __ . __ __ . __ 
 72
    65
 73
     6
 40
0.875
 49
0.25
 74
     0
 49
-0.125
 74
     0
 49
0.25
 74
     0
 49
-0.125
 74
     0
 49
0.0
 74
     0
 49
-0.125
 74
     0
  0
LTYPE
  5
41
330
5
100
AcDbSymbolTableRecord
100
AcDbLinetypeTableRecord
  2
CENTER
 70
     0
  3
___ _ ___ _ ___ _ _
 72
    65
 73
     4
 40
1.125
 49
0.75
 74
     0
 49
-0.125
 74
     0
 49
0.125
 74
     0
 49
-0.125
 74
     0
  0
LTYPE
  5
42
330
5
100
AcDbSymbolTableRecord
100
AcDbLinetypeTableRecord
  2
DASHDOT
 70
     0
  3
_._._._._._._._._._
 72
    65
 73
     4
 40
0.5
 49
0.25
 74
     0
 49
-0.125
 74
     0
 49
0.0
 74
     0
 49
-0.125
 74
     0
  0
LTYPE
  5
43
330
5
100
AcDbSymbolTableRecord
100
AcDbLinetypeTableRecord
  2
DASHED
 70
     0
  3
_ _ _ _ _ _ _ _ _ _
 72
    65
 73
     2
 40
0.375
 49
0.25
 74
     0
 49
-0.125
 74
     0
  0
LTYPE
  5
44
330
5
100
AcDbSymbolTableRecord
100
AcDbLinetypeTableRecord
  2
DIVIDE
 70
     0
  3
__..__..__..__..__.
 72
    65
 73
     6
 40
0.625
 49
0.25
 74
     0
 49
-0.125
 74
     0
 49
0.0
 74
     0
 49
-0.125
 74
     0
 49
0.0
 74
     0
 49
-0.125
 74
     0
  0
LTYPE
  5
45
330
5
100
AcDbSymbolTableRecord
100
AcDbLinetypeTableRecord
  2
DOT
 70
     0
  3
...................
 72
    65
 73
     2
 40
0.125
 49
0.0
 74
     0
 49
-0.125
 74
     0
  0
LTYPE
  5
46
330
5
100
AcDbSymbolTableRecord
100
AcDbLinetypeTableRecord
  2
HIDDEN
 70
     0
  3
__ __ __ __ __ __ _
 72
    65
 73
     2
 40
0.1875
 49
0.125
 74
     0
 49
-0.0625
 74
     0
  0
LTYPE
  5
47
330
5
100
AcDbSymbolTableRecord
100
AcDbLinetypeTableRecord
  2
PHANTOM
 70
     0
  3
___ _ _ ___ _ _ ___
 72
    65
 73
     6
 40
1.25
 49
0.625
 74
     0
 49
-0.125
 74
     0
 49
0.125
 74
     0
 49
-0.125
 74
     0
 49
0.125
 74
     0
 49
-0.125
 74
     0
  0
LTYPE
  5
48
330
5
100
AcDbSymbolTableRecord
100
AcDbLinetypeTableRecord
  2
CUTTING
 70
     0
  3
________ _ _ ______
 72
    65
 73
     6
 40
1.4675
 49
1.0
 74
     0
 49
-0.0725
 74
     0
 49
0.125
 74
     0
 49
-0.0725
 74
     0
 49
0.125
 74
     0
 49
-0.0725
 74
     0
  0
LTYPE
  5
49
330
5
100
AcDbSymbolTableRecord
100
AcDbLinetypeTableRecord
  2
STITCH
 70
     0
  3
_ _ _ _ _ _ _ _ _ _
 72
    65
 73
     2
 40
0.145
 49
0.0725
 74
     0
 49
-0.0725
 74
     0
  0
LTYPE
  5
4A
330
5
100
AcDbSymbolTableRecord
100
AcDbLinetypeTableRecord
  2
DOTTED
 70
     0
  3
Dotted
 72
    65
 73
     2
 40
0.125
 49
0.0
 74
     0
 49
-0.125
 74
     0
  0
LTYPE
  5
4B
330
5
100
AcDbSymbolTableRecord
100
AcDbLinetypeTableRecord
  2
CENTER0
 70
     0
  3
Center
 72
    65
 73
     4
 40
0.7699999958000001
 49
0.5
 74
     0
 49
-0.0724999979
 74
     0
 49
0.125
 74
     0
 49
-0.0724999979
 74
     0
  0
LTYPE
  5
4C
330
5
100
AcDbSymbolTableRecord
100
AcDbLinetypeTableRecord
  2
DASHED1
 70
     0
  3
Dashed
 72
    65
 73
     2
 40
0.375
 49
0.25
 74
     0
 49
-0.125
 74
     0
  0
LTYPE
  5
4D
330
5
100
AcDbSymbolTableRecord
100
AcDbLinetypeTableRecord
  2
HIDDEN2
 70
     0
  3
Hidden
 72
    65
 73
     2
 40
0.1974999979
 49
0.125
 74
     0
 49
-0.0724999979
 74
     0
  0
LTYPE
  5
4E
330
5
100
AcDbSymbolTableRecord
100
AcDbLinetypeTableRecord
  2
PHANTOM3
 70
     0
  3
Phantom
 72
    65
 73
     6
 40
0.9674999937000002
 49
0.5
 74
     0
 49
-0.0724999979
 74
     0
 49
0.125
 74
     0
 49
-0.0724999979
 74
     0
 49
0.125
 74
     0
 49
-0.0724999979
 74
     0
  0
LTYPE
  5
4F
330
5
100
AcDbSymbolTableRecord
100
AcDbLinetypeTableRecord
  2
DASHDOT4
 70
     0
  3
Dashdot
 72
    65
 73
     4
 40
0.6762499958000001
 49
0.5
 74
     0
 49
-0.0724999979
 74
     0
 49
0.03125
 74
     0
 49
-0.0724999979
 74
     0
  0
LTYPE
  5
50
330
5
100
AcDbSymbolTableRecord
100
AcDbLinetypeTableRecord
  2
BORDER5
 70
     0
  3
Border
 72
    65
 73
     6
 40
1.2487499937
 49
0.5
 74
     0
 49
-0.0724999979
 74
     0
 49
0.5
 74
     0
 49
-0.0724999979
 74
     0
 49
0.03125
 74
     0
 49
-0.0724999979
 74
     0
  0
LTYPE
  5
51
330
5
100
AcDbSymbolTableRecord
100
AcDbLinetypeTableRecord
  2
DIVIDE6
 70
     0
  3
Divide
 72
    65
 73
     6
 40
0.7799999937000002
 49
0.5
 74
     0
 49
-0.0724999979
 74
     0
 49
0.03125
 74
     0
 49
-0.0724999979
 74
     0
 49
0.03125
 74
     0
 49
-0.0724999979
 74
     0
  0
LTYPE
  5
52
330
5
100
AcDbSymbolTableRecord
100
AcDbLinetypeTableRecord
  2
CUTTING7
 70
     0
  3
Cutting
 72
    65
 73
     6
 40
1.4674999937
 49
1.0
 74
     0
 49
-0.0724999979
 74
     0
 49
0.125
 74
     0
 49
-0.0724999979
 74
     0
 49
0.125
 74
     0
 49
-0.0724999979
 74
     0
  0
LTYPE
  5
53
330
5
100
AcDbSymbolTableRecord
100
AcDbLinetypeTableRecord
  2
STITCH8
 70
     0
  3
Stitch
 72
    65
 73
     2
 40
0.1449999958
 49
0.0724999979
 74
     0
 49
-0.0724999979
 74
     0
  0
LTYPE
  5
54
330
5
100
AcDbSymbolTableRecord
100
AcDbLinetypeTableRecord
  2
CENTER18
 70
     0
  3
Center
 72
    65
 73
     4
 40
0.7699999958000001
 49
0.5
 74
     0
 49
-0.0724999979
 74
     0
 49
0.125
 74
     0
 49
-0.0724999979
 74
     0
  0
LTYPE
  5
55
330
5
100
AcDbSymbolTableRecord
100
AcDbLinetypeTableRecord
  2
DASHED19
 70
     0
  3
Dashed
 72
    65
 73
     2
 40
0.375
 49
0.25
 74
     0
 49
-0.125
 74
     0
  0
LTYPE
  5
56
330
5
100
AcDbSymbolTableRecord
100
AcDbLinetypeTableRecord
  2
HIDDEN20
 70
     0
  3
Hidden
 72
    65
 73
     2
 40
0.1974999979
 49
0.125
 74
     0
 49
-0.0724999979
 74
     0
  0
LTYPE
  5
57
330
5
100
AcDbSymbolTableRecord
100
AcDbLinetypeTableRecord
  2
PHANTOM21
 70
     0
  3
Phantom
 72
    65
 73
     6
 40
0.9674999937000002
 49
0.5
 74
     0
 49
-0.0724999979
 74
     0
 49
0.125
 74
     0
 49
-0.0724999979
 74
     0
 49
0.125
 74
     0
 49
-0.0724999979
 74
     0
  0
LTYPE
  5
58
330
5
100
AcDbSymbolTableRecord
100
AcDbLinetypeTableRecord
  2
DASHDOT22
 70
     0
  3
Dashdot
 72
    65
 73
     4
 40
0.6762499958000001
 49
0.5
 74
     0
 49
-0.0724999979
 74
     0
 49
0.03125
 74
     0
 49
-0.0724999979
 74
     0
  0
LTYPE
  5
59
330
5
100
AcDbSymbolTableRecord
100
AcDbLinetypeTableRecord
  2
BORDER23
 70
     0
  3
Border
 72
    65
 73
     6
 40
1.2487499937
 49
0.5
 74
     0
 49
-0.0724999979
 74
     0
 49
0.5
 74
     0
 49
-0.0724999979
 74
     0
 49
0.03125
 74
     0
 49
-0.0724999979
 74
     0
  0
LTYPE
  5
5A
330
5
100
AcDbSymbolTableRecord
100
AcDbLinetypeTableRecord
  2
DIVIDE24
 70
     0
  3
Divide
 72
    65
 73
     6
 40
0.7799999937000002
 49
0.5
 74
     0
 49
-0.0724999979
 74
     0
 49
0.03125
 74
     0
 49
-0.0724999979
 74
     0
 49
0.03125
 74
     0
 49
-0.0724999979
 74
     0
  0
LTYPE
  5
5B
330
5
100
AcDbSymbolTableRecord
100
AcDbLinetypeTableRecord
  2
CUTTING25
 70
     0
  3
Cutting
 72
    65
 73
     6
 40
1.4674999937
 49
1.0
 74
     0
 49
-0.0724999979
 74
     0
 49
0.125
 74
     0
 49
-0.0724999979
 74
     0
 49
0.125
 74
     0
 49
-0.0724999979
 74
     0
  0
LTYPE
  5
5C
330
5
100
AcDbSymbolTableRecord
100
AcDbLinetypeTableRecord
  2
STITCH26
 70
     0
  3
Stitch
 72
    65
 73
     2
 40
0.1449999958
 49
0.0724999979
 74
     0
 49
-0.0724999979
 74
     0
  0
LTYPE
  5
5D
330
5
100
AcDbSymbolTableRecord
100
AcDbLinetypeTableRecord
  2
CENTER98
 70
     0
  3
Center
 72
    65
 73
     4
 40
0.7699999958000001
 49
0.5
 74
     0
 49
-0.0724999979
 74
     0
 49
0.125
 74
     0
 49
-0.0724999979
 74
     0
  0
LTYPE
  5
5E
330
5
100
AcDbSymbolTableRecord
100
AcDbLinetypeTableRecord
  2
DASHED99
 70
     0
  3
Dashed
 72
    65
 73
     2
 40
0.375
 49
0.25
 74
     0
 49
-0.125
 74
     0
  0
LTYPE
  5
5F
330
5
100
AcDbSymbolTableRecord
100
AcDbLinetypeTableRecord
  2
HIDDEN100
 70
     0
  3
Hidden
 72
    65
 73
     2
 40
0.1974999979
 49
0.125
 74
     0
 49
-0.0724999979
 74
     0
  0
LTYPE
  5
60
330
5
100
AcDbSymbolTableRecord
100
AcDbLinetypeTableRecord
  2
PHANTOM101
 70
     0
  3
Phantom
 72
    65
 73
     6
 40
0.9674999937000002
 49
0.5
 74
     0
 49
-0.0724999979
 74
     0
 49
0.125
 74
     0
 49
-0.0724999979
 74
     0
 49
0.125
 74
     0
 49
-0.0724999979
 74
     0
  0
LTYPE
  5
61
330
5
100
AcDbSymbolTableRecord
100
AcDbLinetypeTableRecord
  2
DASHDOT102
 70
     0
  3
Dashdot
 72
    65
 73
     4
 40
0.6762499958000001
 49
0.5
 74
     0
 49
-0.0724999979
 74
     0
 49
0.03125
 74
     0
 49
-0.0724999979
 74
     0
  0
LTYPE
  5
62
330
5
100
AcDbSymbolTableRecord
100
AcDbLinetypeTableRecord
  2
BORDER103
 70
     0
  3
Border
 72
    65
 73
     6
 40
1.2487499937
 49
0.5
 74
     0
 49
-0.0724999979
 74
     0
 49
0.5
 74
     0
 49
-0.0724999979
 74
     0
 49
0.03125
 74
     0
 49
-0.0724999979
 74
     0
  0
LTYPE
  5
63
330
5
100
AcDbSymbolTableRecord
100
AcDbLinetypeTableRecord
  2
DIVIDE104
 70
     0
  3
Divide
 72
    65
 73
     6
 40
0.7799999937000002
 49
0.5
 74
     0
 49
-0.0724999979
 74
     0
 49
0.03125
 74
     0
 49
-0.0724999979
 74
     0
 49
0.03125
 74
     0
 49
-0.0724999979
 74
     0
  0
LTYPE
  5
64
330
5
100
AcDbSymbolTableRecord
100
AcDbLinetypeTableRecord
  2
CUTTING105
 70
     0
  3
Cutting
 72
    65
 73
     6
 40
1.4674999937
 49
1.0
 74
     0
 49
-0.0724999979
 74
     0
 49
0.125
 74
     0
 49
-0.0724999979
 74
     0
 49
0.125
 74
     0
 49
-0.0724999979
 74
     0
  0
LTYPE
  5
65
330
5
100
AcDbSymbolTableRecord
100
AcDbLinetypeTableRecord
  2
STITCH106
 70
     0
  3
Stitch
 72
    65
 73
     2
 40
0.1449999958
 49
0.0724999979
 74
     0
 49
-0.0724999979
 74
     0
  0
LTYPE
  5
66
330
5
100
AcDbSymbolTableRecord
100
AcDbLinetypeTableRecord
  2
DOTTED107
 70
     0
  3
Dotted
 72
    65
 73
     2
 40
0.125
 49
0.0
 74
     0
 49
-0.125
 74
     0
  0
LTYPE
  5
67
330
5
100
AcDbSymbolTableRecord
100
AcDbLinetypeTableRecord
  2
CENTER9
 70
     0
  3
Center
 72
    65
 73
     4
 40
0.7699999958000001
 49
0.5
 74
     0
 49
-0.0724999979
 74
     0
 49
0.125
 74
     0
 49
-0.0724999979
 74
     0
  0
LTYPE
  5
68
330
5
100
AcDbSymbolTableRecord
100
AcDbLinetypeTableRecord
  2
DASHED10
 70
     0
  3
Dashed
 72
    65
 73
     2
 40
0.375
 49
0.25
 74
     0
 49
-0.125
 74
     0
  0
LTYPE
  5
69
330
5
100
AcDbSymbolTableRecord
100
AcDbLinetypeTableRecord
  2
HIDDEN11
 70
     0
  3
Hidden
 72
    65
 73
     2
 40
0.1974999979
 49
0.125
 74
     0
 49
-0.0724999979
 74
     0
  0
LTYPE
  5
6A
330
5
100
AcDbSymbolTableRecord
100
AcDbLinetypeTableRecord
  2
PHANTOM12
 70
     0
  3
Phantom
 72
    65
 73
     6
 40
0.9674999937000002
 49
0.5
 74
     0
 49
-0.0724999979
 74
     0
 49
0.125
 74
     0
 49
-0.0724999979
 74
     0
 49
0.125
 74
     0
 49
-0.0724999979
 74
     0
  0
LTYPE
  5
6B
330
5
100
AcDbSymbolTableRecord
100
AcDbLinetypeTableRecord
  2
DASHDOT13
 70
     0
  3
Dashdot
 72
    65
 73
     4
 40
0.6762499958000001
 49
0.5
 74
     0
 49
-0.0724999979
 74
     0
 49
0.03125
 74
     0
 49
-0.0724999979
 74
     0
  0
LTYPE
  5
6C
330
5
100
AcDbSymbolTableRecord
100
AcDbLinetypeTableRecord
  2
BORDER14
 70
     0
  3
Border
 72
    65
 73
     6
 40
1.2487499937
 49
0.5
 74
     0
 49
-0.0724999979
 74
     0
 49
0.5
 74
     0
 49
-0.0724999979
 74
     0
 49
0.03125
 74
     0
 49
-0.0724999979
 74
     0
  0
LTYPE
  5
6D
330
5
100
AcDbSymbolTableRecord
100
AcDbLinetypeTableRecord
  2
DIVIDE15
 70
     0
  3
Divide
 72
    65
 73
     6
 40
0.7799999937000002
 49
0.5
 74
     0
 49
-0.0724999979
 74
     0
 49
0.03125
 74
     0
 49
-0.0724999979
 74
     0
 49
0.03125
 74
     0
 49
-0.0724999979
 74
     0
  0
LTYPE
  5
6E
330
5
100
AcDbSymbolTableRecord
100
AcDbLinetypeTableRecord
  2
CUTTING16
 70
     0
  3
Cutting
 72
    65
 73
     6
 40
1.4674999937
 49
1.0
 74
     0
 49
-0.0724999979
 74
     0
 49
0.125
 74
     0
 49
-0.0724999979
 74
     0
 49
0.125
 74
     0
 49
-0.0724999979
 74
     0
  0
LTYPE
  5
6F
330
5
100
AcDbSymbolTableRecord
100
AcDbLinetypeTableRecord
  2
STITCH17
 70
     0
  3
Stitch
 72
    65
 73
     2
 40
0.1449999958
 49
0.0724999979
 74
     0
 49
-0.0724999979
 74
     0
  0
LTYPE
  5
70
330
5
100
AcDbSymbolTableRecord
100
AcDbLinetypeTableRecord
  2
DOTTED27
 70
     0
  3
Dotted
 72
    65
 73
     2
 40
0.125
 49
0.0
 74
     0
 49
-0.125
 74
     0
  0
LTYPE
  5
71
330
5
100
AcDbSymbolTableRecord
100
AcDbLinetypeTableRecord
  2
CENTER28
 70
     0
  3
Center
 72
    65
 73
     4
 40
0.7699999958000001
 49
0.5
 74
     0
 49
-0.0724999979
 74
     0
 49
0.125
 74
     0
 49
-0.0724999979
 74
     0
  0
LTYPE
  5
72
330
5
100
AcDbSymbolTableRecord
100
AcDbLinetypeTableRecord
  2
DASHED29
 70
     0
  3
Dashed
 72
    65
 73
     2
 40
0.375
 49
0.25
 74
     0
 49
-0.125
 74
     0
  0
LTYPE
  5
73
330
5
100
AcDbSymbolTableRecord
100
AcDbLinetypeTableRecord
  2
HIDDEN30
 70
     0
  3
Hidden
 72
    65
 73
     2
 40
0.1974999979
 49
0.125
 74
     0
 49
-0.0724999979
 74
     0
  0
LTYPE
  5
74
330
5
100
AcDbSymbolTableRecord
100
AcDbLinetypeTableRecord
  2
PHANTOM31
 70
     0
  3
Phantom
 72
    65
 73
     6
 40
0.9674999937000002
 49
0.5
 74
     0
 49
-0.0724999979
 74
     0
 49
0.125
 74
     0
 49
-0.0724999979
 74
     0
 49
0.125
 74
     0
 49
-0.0724999979
 74
     0
  0
LTYPE
  5
75
330
5
100
AcDbSymbolTableRecord
100
AcDbLinetypeTableRecord
  2
DASHDOT32
 70
     0
  3
Dashdot
 72
    65
 73
     4
 40
0.6762499958000001
 49
0.5
 74
     0
 49
-0.0724999979
 74
     0
 49
0.03125
 74
     0
 49
-0.0724999979
 74
     0
  0
LTYPE
  5
76
330
5
100
AcDbSymbolTableRecord
100
AcDbLinetypeTableRecord
  2
BORDER33
 70
     0
  3
Border
 72
    65
 73
     6
 40
1.2487499937
 49
0.5
 74
     0
 49
-0.0724999979
 74
     0
 49
0.5
 74
     0
 49
-0.0724999979
 74
     0
 49
0.03125
 74
     0
 49
-0.0724999979
 74
     0
  0
LTYPE
  5
77
330
5
100
AcDbSymbolTableRecord
100
AcDbLinetypeTableRecord
  2
DIVIDE34
 70
     0
  3
Divide
 72
    65
 73
     6
 40
0.7799999937000002
 49
0.5
 74
     0
 49
-0.0724999979
 74
     0
 49
0.03125
 74
     0
 49
-0.0724999979
 74
     0
 49
0.03125
 74
     0
 49
-0.0724999979
 74
     0
  0
LTYPE
  5
78
330
5
100
AcDbSymbolTableRecord
100
AcDbLinetypeTableRecord
  2
CUTTING35
 70
     0
  3
Cutting
 72
    65
 73
     6
 40
1.4674999937
 49
1.0
 74
     0
 49
-0.0724999979
 74
     0
 49
0.125
 74
     0
 49
-0.0724999979
 74
     0
 49
0.125
 74
     0
 49
-0.0724999979
 74
     0
  0
LTYPE
  5
79
330
5
100
AcDbSymbolTableRecord
100
AcDbLinetypeTableRecord
  2
STITCH36
 70
     0
  3
Stitch
 72
    65
 73
     2
 40
0.1449999958
 49
0.0724999979
 74
     0
 49
-0.0724999979
 74
     0
  0
LTYPE
  5
7A
330
5
100
AcDbSymbolTableRecord
100
AcDbLinetypeTableRecord
  2
DOTTED37
 70
     0
  3
Dotted
 72
    65
 73
     2
 40
0.125
 49
0.0
 74
     0
 49
-0.125
 74
     0
  0
LTYPE
  5
7B
330
5
100
AcDbSymbolTableRecord
100
AcDbLinetypeTableRecord
  2
CENTER38
 70
     0
  3
Center
 72
    65
 73
     4
 40
0.7699999958000001
 49
0.5
 74
     0
 49
-0.0724999979
 74
     0
 49
0.125
 74
     0
 49
-0.0724999979
 74
     0
  0
LTYPE
  5
7C
330
5
100
AcDbSymbolTableRecord
100
AcDbLinetypeTableRecord
  2
DASHED39
 70
     0
  3
Dashed
 72
    65
 73
     2
 40
0.375
 49
0.25
 74
     0
 49
-0.125
 74
     0
  0
LTYPE
  5
7D
330
5
100
AcDbSymbolTableRecord
100
AcDbLinetypeTableRecord
  2
HIDDEN40
 70
     0
  3
Hidden
 72
    65
 73
     2
 40
0.1974999979
 49
0.125
 74
     0
 49
-0.0724999979
 74
     0
  0
LTYPE
  5
7E
330
5
100
AcDbSymbolTableRecord
100
AcDbLinetypeTableRecord
  2
PHANTOM41
 70
     0
  3
Phantom
 72
    65
 73
     6
 40
0.9674999937000002
 49
0.5
 74
     0
 49
-0.0724999979
 74
     0
 49
0.125
 74
     0
 49
-0.0724999979
 74
     0
 49
0.125
 74
     0
 49
-0.0724999979
 74
     0
  0
LTYPE
  5
7F
330
5
100
AcDbSymbolTableRecord
100
AcDbLinetypeTableRecord
  2
DASHDOT42
 70
     0
  3
Dashdot
 72
    65
 73
     4
 40
0.6762499958000001
 49
0.5
 74
     0
 49
-0.0724999979
 74
     0
 49
0.03125
 74
     0
 49
-0.0724999979
 74
     0
  0
LTYPE
  5
80
330
5
100
AcDbSymbolTableRecord
100
AcDbLinetypeTableRecord
  2
BORDER43
 70
     0
  3
Border
 72
    65
 73
     6
 40
1.2487499937
 49
0.5
 74
     0
 49
-0.0724999979
 74
     0
 49
0.5
 74
     0
 49
-0.0724999979
 74
     0
 49
0.03125
 74
     0
 49
-0.0724999979
 74
     0
  0
LTYPE
  5
81
330
5
100
AcDbSymbolTableRecord
100
AcDbLinetypeTableRecord
  2
DIVIDE44
 70
     0
  3
Divide
 72
    65
 73
     6
 40
0.7799999937000002
 49
0.5
 74
     0
 49
-0.0724999979
 74
     0
 49
0.03125
 74
     0
 49
-0.0724999979
 74
     0
 49
0.03125
 74
     0
 49
-0.0724999979
 74
     0
  0
LTYPE
  5
82
330
5
100
AcDbSymbolTableRecord
100
AcDbLinetypeTableRecord
  2
CUTTING45
 70
     0
  3
Cutting
 72
    65
 73
     6
 40
1.4674999937
 49
1.0
 74
     0
 49
-0.0724999979
 74
     0
 49
0.125
 74
     0
 49
-0.0724999979
 74
     0
 49
0.125
 74
     0
 49
-0.0724999979
 74
     0
  0
LTYPE
  5
83
330
5
100
AcDbSymbolTableRecord
100
AcDbLinetypeTableRecord
  2
STITCH46
 70
     0
  3
Stitch
 72
    65
 73
     2
 40
0.1449999958
 49
0.0724999979
 74
     0
 49
-0.0724999979
 74
     0
  0
LTYPE
  5
84
330
5
100
AcDbSymbolTableRecord
100
AcDbLinetypeTableRecord
  2
DOTTED47
 70
     0
  3
Dotted
 72
    65
 73
     2
 40
0.125
 49
0.0
 74
     0
 49
-0.125
 74
     0
  0
LTYPE
  5
85
330
5
100
AcDbSymbolTableRecord
100
AcDbLinetypeTableRecord
  2
CENTER48
 70
     0
  3
Center
 72
    65
 73
     4
 40
0.7699999958000001
 49
0.5
 74
     0
 49
-0.0724999979
 74
     0
 49
0.125
 74
     0
 49
-0.0724999979
 74
     0
  0
LTYPE
  5
86
330
5
100
AcDbSymbolTableRecord
100
AcDbLinetypeTableRecord
  2
DASHED49
 70
     0
  3
Dashed
 72
    65
 73
     2
 40
0.375
 49
0.25
 74
     0
 49
-0.125
 74
     0
  0
LTYPE
  5
87
330
5
100
AcDbSymbolTableRecord
100
AcDbLinetypeTableRecord
  2
HIDDEN50
 70
     0
  3
Hidden
 72
    65
 73
     2
 40
0.1974999979
 49
0.125
 74
     0
 49
-0.0724999979
 74
     0
  0
LTYPE
  5
88
330
5
100
AcDbSymbolTableRecord
100
AcDbLinetypeTableRecord
  2
PHANTOM51
 70
     0
  3
Phantom
 72
    65
 73
     6
 40
0.9674999937000002
 49
0.5
 74
     0
 49
-0.0724999979
 74
     0
 49
0.125
 74
     0
 49
-0.0724999979
 74
     0
 49
0.125
 74
     0
 49
-0.0724999979
 74
     0
  0
LTYPE
  5
89
330
5
100
AcDbSymbolTableRecord
100
AcDbLinetypeTableRecord
  2
DASHDOT52
 70
     0
  3
Dashdot
 72
    65
 73
     4
 40
0.6762499958000001
 49
0.5
 74
     0
 49
-0.0724999979
 74
     0
 49
0.03125
 74
     0
 49
-0.0724999979
 74
     0
  0
ENDTAB
  0
TABLE
  2
LAYER
  5
2
330
0
100
AcDbSymbolTable
 70
     5
  0
LAYER
  5
10
330
2
100
AcDbSymbolTableRecord
100
AcDbLayerTableRecord
  2
0
 70
     0
 62
     7
  6
CONTINUOUS
  0
LAYER
  5
3C
330
2
100
AcDbSymbolTableRecord
100
AcDbLayerTableRecord
  2
DXF_US-3015_V5
 70
     0
 62
     7
  6
CONTINUOUS
  0
LAYER
  5
3D
330
2
100
AcDbSymbolTableRecord
100
AcDbLayerTableRecord
  2
DXF_US-3015_V5_MODEL
 70
     0
 62
     7
  6
CONTINUOUS
  0
LAYER
  5
3E
330
2
100
AcDbSymbolTableRecord
100
AcDbLayerTableRecord
  2
DXF_US-3015_V5_MODEL_DXF_U
 70
     0
 62
     7
  6
CONTINUOUS
  0
LAYER
  5
A4
330
2
100
AcDbSymbolTableRecord
100
AcDbLayerTableRecord
  2
DEFPOINTS
 70
     0
 62
     7
  6
CONTINUOUS
  0
ENDTAB
  0
TABLE
  2
STYLE
  5
3
330
0
100
AcDbSymbolTable
 70
     7
  0
STYLE
  5
11
330
3
100
AcDbSymbolTableRecord
100
AcDbTextStyleTableRecord
  2
STANDARD
 70
     0
 40
0.0
 41
1.0
 50
0.0
 71
     0
 42
0.2
  3
txt
  4

  0
STYLE
  5
9C
330
3
100
AcDbSymbolTableRecord
100
AcDbTextStyleTableRecord
  2
TEXT37
 70
     0
 40
0.2
 41
1.0
 50
0.0
 71
     0
 42
0.2
  3

  4

1001
ACAD
1000
Plotter
1071
        0
  0
STYLE
  5
C4
330
3
100
AcDbSymbolTableRecord
100
AcDbTextStyleTableRecord
  2
TEXT62
 70
     0
 40
0.2
 41
1.0
 50
0.0
 71
     0
 42
0.2
  3

  4

1001
ACAD
1000
Plotter
1071
        0
  0
STYLE
  5
C8
330
3
100
AcDbSymbolTableRecord
100
AcDbTextStyleTableRecord
  2
TEXT65
 70
     0
 40
0.2
 41
1.0
 50
0.0
 71
     0
 42
0.2
  3

  4

1001
ACAD
1000
Plotter
1071
        0
  0
STYLE
  5
D9
330
3
100
AcDbSymbolTableRecord
100
AcDbTextStyleTableRecord
  2
TEXT68
 70
     0
 40
0.2
 41
1.0
 50
0.0
 71
     0
 42
0.2
  3

  4

1001
ACAD
1000
Plotter
1071
        0
  0
STYLE
  5
DB
330
3
100
AcDbSymbolTableRecord
100
AcDbTextStyleTableRecord
  2
TEXT69
 70
     0
 40
0.2
 41
1.0
 50
0.0
 71
     0
 42
0.2
  3

  4

1001
ACAD
1000
Plotter
1071
        0
  0
STYLE
  5
F7
330
3
100
AcDbSymbolTableRecord
100
AcDbTextStyleTableRecord
  2
TEXT96
 70
     0
 40
0.2
 41
1.0
 50
0.0
 71
     0
 42
0.2
  3

  4

1001
ACAD
1000
Plotter
1071
        0
  0
ENDTAB
  0
TABLE
  2
VIEW
  5
6
330
0
100
AcDbSymbolTable
 70
     0
  0
ENDTAB
  0
TABLE
  2
UCS
  5
7
330
0
100
AcDbSymbolTable
 70
     0
  0
ENDTAB
  0
TABLE
  2
APPID
  5
9
330
0
100
AcDbSymbolTable
 70
     2
  0
APPID
  5
12
330
9
100
AcDbSymbolTableRecord
100
AcDbRegAppTableRecord
  2
ACAD
 70
     0
  0
APPID
  5
3B
330
9
100
AcDbSymbolTableRecord
100
AcDbRegAppTableRecord
  2
PUNCH__SOFTWARE_VIACAD
 70
     0
  0
ENDTAB
  0
TABLE
  2
DIMSTYLE
  5
A
330
0
100
AcDbSymbolTable
 70
     5
  0
DIMSTYLE
105
27
330
A
100
AcDbSymbolTableRecord
100
AcDbDimStyleTableRecord
  2
STANDARD
 70
     0
  3

  4

  5

  6

  7

 40
1.0
 41
0.18
 42
0.0625
 43
0.38
 44
0.18
 45
0.0
 46
0.0
 47
0.0
 48
0.0
140
0.18
141
0.09
142
0.0
143
25.4
144
1.0
145
0.0
146
1.0
147
0.09
 71
     0
 72
     0
 73
     1
 74
     1
 75
     0
 76
     0
 77
     0
 78
     0
170
     0
171
     2
172
     0
173
     0
174
     0
175
     0
176
     0
177
     0
178
     0
270
     2
271
     4
272
     4
273
     2
274
     2
340
11
275
     0
280
     0
281
     0
282
     0
283
     1
284
     0
285
     0
286
     0
287
     3
288
     0
  0
DIMSTYLE
105
A2
102
{ACAD_REACTORS
330
A3
102
}
330
A
100
AcDbSymbolTableRecord
100
AcDbDimStyleTableRecord
  2
ROTATEDDIM8
 70
     0
  3

  4

  5

  6

  7

 40
1.0
 41
0.25
 42
0.0625
 43
0.38
 44
0.18
 45
0.0
 46
0.0
 47
0.0
 48
0.0
140
0.125
141
0.09
142
0.0
143
25.4
144
1.0
145
0.0
146
1.0
147
0.09
 71
     0
 72
     0
 73
     1
 74
     1
 75
     0
 76
     0
 77
     0
 78
     0
170
     0
171
     2
172
     0
173
     0
174
     0
175
     0
176
     0
177
     0
178
     0
270
     2
271
     4
272
     4
273
     2
274
     2
340
11
275
     0
280
     0
281
     0
282
     0
283
     1
284
     0
285
     0
286
     0
287
     3
288
     0
  0
DIMSTYLE
105
CA
102
{ACAD_REACTORS
330
CB
102
}
330
A
100
AcDbSymbolTableRecord
100
AcDbDimStyleTableRecord
  2
ROTATEDDIM9
 70
     0
  3

  4

  5

  6

  7

 40
1.0
 41
0.25
 42
0.0625
 43
0.38
 44
0.18
 45
0.0
 46
0.0
 47
0.0
 48
0.0
140
0.125
141
0.09
142
0.0
143
25.4
144
1.0
145
0.0
146
1.0
147
0.09
 71
     0
 72
     0
 73
     1
 74
     1
 75
     0
 76
     0
 77
     0
 78
     0
170
     0
171
     2
172
     0
173
     0
174
     0
175
     0
176
     0
177
     0
178
     0
270
     2
271
     4
272
     4
273
     2
274
     2
340
11
275
     0
280
     0
281
     0
282
     0
283
     1
284
     0
285
     0
286
     0
287
     3
288
     0
  0
DIMSTYLE
105
F9
102
{ACAD_REACTORS
330
FA
102
}
330
A
100
AcDbSymbolTableRecord
100
AcDbDimStyleTableRecord
  2
ROTATEDDIM10
 70
     0
  3

  4

  5

  6

  7

 40
1.0
 41
0.25
 42
0.0625
 43
0.38
 44
0.18
 45
0.0
 46
0.0
 47
0.0
 48
0.0
140
0.125
141
0.09
142
0.0
143
25.4
144
1.0
145
0.0
146
1.0
147
0.09
 71
     0
 72
     0
 73
     1
 74
     1
 75
     0
 76
     0
 77
     0
 78
     0
170
     0
171
     2
172
     0
173
     0
174
     0
175
     0
176
     0
177
     0
178
     0
270
     2
271
     4
272
     4
273
     2
274
     2
340
11
275
     0
280
     0
281
     0
282
     0
283
     1
284
     0
285
     0
286
     0
287
     3
288
     0
  0
DIMSTYLE
105
10A
102
{ACAD_REACTORS
330
10B
102
}
330
A
100
AcDbSymbolTableRecord
100
AcDbDimStyleTableRecord
  2
ROTATEDDIM11
 70
     0
  3

  4

  5

  6

  7

 40
1.0
 41
0.25
 42
0.0625
 43
0.38
 44
0.18
 45
0.0
 46
0.0
 47
0.0
 48
0.0
140
0.125
141
0.09
142
0.0
143
25.4
144
1.0
145
0.0
146
1.0
147
0.09
 71
     0
 72
     0
 73
     1
 74
     1
 75
     0
 76
     0
 77
     0
 78
     0
170
     0
171
     2
172
     0
173
     0
174
     0
175
     0
176
     0
177
     0
178
     0
270
     2
271
     4
272
     4
273
     2
274
     2
340
11
275
     0
280
     0
281
     0
282
     0
283
     1
284
     0
285
     0
286
     0
287
     3
288
     0
  0
ENDTAB
  0
TABLE
  2
BLOCK_RECORD
  5
1
330
0
100
AcDbSymbolTable
 70
     5
  0
BLOCK_RECORD
  5
1F
330
1
100
AcDbSymbolTableRecord
100
AcDbBlockTableRecord
  2
*MODEL_SPACE
  0
BLOCK_RECORD
  5
1B
330
1
100
AcDbSymbolTableRecord
100
AcDbBlockTableRecord
  2
*PAPER_SPACE
  0
BLOCK_RECORD
  5
A5
330
1
100
AcDbSymbolTableRecord
100
AcDbBlockTableRecord
  2
*D1
  0
BLOCK_RECORD
  5
CC
330
1
100
AcDbSymbolTableRecord
100
AcDbBlockTableRecord
  2
*D2
  0
BLOCK_RECORD
  5
FB
330
1
100
AcDbSymbolTableRecord
100
AcDbBlockTableRecord
  2
*D3
  0
BLOCK_RECORD
  5
10C
330
1
100
AcDbSymbolTableRecord
100
AcDbBlockTableRecord
  2
*D4
  0
ENDTAB
  0
ENDSEC
  0
SECTION
  2
BLOCKS
  0
BLOCK
  5
20
330
1F
100
AcDbEntity
  8
0
100
AcDbBlockBegin
  2
*MODEL_SPACE
 70
     0
 71
     0
 10
0.0
 20
0.0
 30
0.0
  3
*MODEL_SPACE
  1

  0
ENDBLK
  5
21
330
1F
100
AcDbEntity
  8
0
100
AcDbBlockEnd
  0
BLOCK
  5
1C
330
1B
100
AcDbEntity
 67
     1
  8
0
100
AcDbBlockBegin
  2
*PAPER_SPACE
 70
     0
 71
     0
 10
0.0
 20
0.0
 30
0.0
  3
*PAPER_SPACE
  1

  0
ENDBLK
  5
1D
330
1B
100
AcDbEntity
 67
     1
  8
0
100
AcDbBlockEnd
  0
BLOCK
  5
B0
330
A5
100
AcDbEntity
  8
0
100
AcDbBlockBegin
  2
*D1
 70
     1
 71
     0
 10
0.0
 20
0.0
 30
0.0
  3
*D1
  1

  0
LINE
  5
A6
330
A5
100
AcDbEntity
  8
DXF_US-3015_V5_MODEL_DXF_U
 62
     0
100
AcDbLine
 10
-0.8400566782
 20
-0.7548807274
 30
0.0
 11
-0.8400566782
 21
-1.0230618048
 31
0.0
  0
LINE
  5
A7
330
A5
100
AcDbEntity
  8
DXF_US-3015_V5_MODEL_DXF_U
 62
     0
100
AcDbLine
 10
-0.7149149893
 20
-0.7548807274
 30
0.0
 11
-0.7149149893
 21
-1.0230618048
 31
0.0
  0
LINE
  5
A8
330
A5
100
AcDbEntity
  8
DXF_US-3015_V5_MODEL_DXF_U
 62
     0
100
AcDbLine
 10
-1.0900566782
 20
-0.8430618048
 30
0.0
 11
-1.3400566782
 21
-0.8430618048
 31
0.0
  0
LINE
  5
A9
330
A5
100
AcDbEntity
  8
DXF_US-3015_V5_MODEL_DXF_U
 62
     0
100
AcDbLine
 10
-0.4649149893
 20
-0.8430618048
 30
0.0
 11
-0.2149149893
 21
-0.8430618048
 31
0.0
  0
SOLID
  5
AA
330
A5
100
AcDbEntity
  8
DXF_US-3015_V5_MODEL_DXF_U
 62
     0
100
AcDbTrace
 10
-1.0900566782
 20
-0.8847284714666667
 30
0.0
 11
-1.0900566782
 21
-0.8013951381333334
 31
0.0
 12
-0.8400566782
 22
-0.8430618048
 32
0.0
 13
-0.8400566782
 23
-0.8430618048
 33
0.0
  0
SOLID
  5
AB
330
A5
100
AcDbEntity
  8
DXF_US-3015_V5_MODEL_DXF_U
 62
     0
100
AcDbTrace
 10
-0.4649149893
 20
-0.8013951381333334
 30
0.0
 11
-0.4649149893
 21
-0.8847284714666667
 31
0.0
 12
-0.7149149893
 22
-0.8430618048
 32
0.0
 13
-0.7149149893
 23
-0.8430618048
 33
0.0
  0
MTEXT
  5
AC
330
A5
100
AcDbEntity
  8
DXF_US-3015_V5_MODEL_DXF_U
 62
     0
100
AcDbMText
 10
0.1667516773666667
 20
-0.8430618048
 30
0.0
 40
0.125
 41
0.0
 71
     5
 72
     1
  1
\A1;0.1251
  0
POINT
  5
AD
330
A5
100
AcDbEntity
  8
DEFPOINTS
 62
     0
100
AcDbPoint
 10
-0.8400566782
 20
-0.6923807274
 30
0.0
  0
POINT
  5
AE
330
A5
100
AcDbEntity
  8
DEFPOINTS
 62
     0
100
AcDbPoint
 10
-0.7149149893
 20
-0.6923807274
 30
0.0
  0
POINT
  5
AF
330
A5
100
AcDbEntity
  8
DEFPOINTS
 62
     0
100
AcDbPoint
 10
-0.7149149893
 20
-0.8430618048
 30
0.0
  0
ENDBLK
  5
B1
330
A5
100
AcDbEntity
  8
0
100
AcDbBlockEnd
  0
BLOCK
  5
D7
330
CC
100
AcDbEntity
  8
0
100
AcDbBlockBegin
  2
*D2
 70
     1
 71
     0
 10
0.0
 20
0.0
 30
0.0
  3
*D2
  1

  0
LINE
  5
CD
330
CC
100
AcDbEntity
  8
DXF_US-3015_V5_MODEL_DXF_U
 62
     0
100
AcDbLine
 10
-13.768
 20
-7.203745
 30
0.0
 11
-13.768
 21
-10.1824743001
 31
0.0
  0
LINE
  5
CE
330
CC
100
AcDbEntity
  8
DXF_US-3015_V5_MODEL_DXF_U
 62
     0
100
AcDbLine
 10
15.982
 20
-7.203745
 30
0.0
 11
15.982
 21
-10.1824743001
 31
0.0
  0
LINE
  5
CF
330
CC
100
AcDbEntity
  8
DXF_US-3015_V5_MODEL_DXF_U
 62
     0
100
AcDbLine
 10
-13.518
 20
-10.0024743001
 30
0.0
 11
0.6479523809523808
 21
-10.0024743001
 31
0.0
  0
LINE
  5
D0
330
CC
100
AcDbEntity
  8
DXF_US-3015_V5_MODEL_DXF_U
 62
     0
100
AcDbLine
 10
15.732
 20
-10.0024743001
 30
0.0
 11
1.56604761904762
 21
-10.0024743001
 31
0.0
  0
SOLID
  5
D1
330
CC
100
AcDbEntity
  8
DXF_US-3015_V5_MODEL_DXF_U
 62
     0
100
AcDbTrace
 10
-13.518
 20
-9.960807633433333
 30
0.0
 11
-13.518
 21
-10.04414096676667
 31
0.0
 12
-13.768
 22
-10.0024743001
 32
0.0
 13
-13.768
 23
-10.0024743001
 33
0.0
  0
SOLID
  5
D2
330
CC
100
AcDbEntity
  8
DXF_US-3015_V5_MODEL_DXF_U
 62
     0
100
AcDbTrace
 10
15.732
 20
-10.04414096676667
 30
0.0
 11
15.732
 21
-9.960807633433333
 31
0.0
 12
15.982
 22
-10.0024743001
 32
0.0
 13
15.982
 23
-10.0024743001
 33
0.0
  0
MTEXT
  5
D3
330
CC
100
AcDbEntity
  8
DXF_US-3015_V5_MODEL_DXF_U
 62
     0
100
AcDbMText
 10
1.106999999999999
 20
-10.0024743001
 30
0.0
 40
0.125
 41
0.0
 71
     5
 72
     1
  1
\A1;29.7500
  0
POINT
  5
D4
330
CC
100
AcDbEntity
  8
DEFPOINTS
 62
     0
100
AcDbPoint
 10
-13.768
 20
-7.141245
 30
0.0
  0
POINT
  5
D5
330
CC
100
AcDbEntity
  8
DEFPOINTS
 62
     0
100
AcDbPoint
 10
15.982
 20
-7.141245
 30
0.0
  0
POINT
  5
D6
330
CC
100
AcDbEntity
  8
DEFPOINTS
 62
     0
100
AcDbPoint
 10
15.982
 20
-10.0024743001
 30
0.0
  0
ENDBLK
  5
D8
330
CC
100
AcDbEntity
  8
0
100
AcDbBlockEnd
  0
BLOCK
  5
106
330
FB
100
AcDbEntity
  8
0
100
AcDbBlockBegin
  2
*D3
 70
     1
 71
     0
 10
0.0
 20
0.0
 30
0.0
  3
*D3
  1

  0
LINE
  5
FC
330
FB
100
AcDbEntity
  8
DXF_US-3015_V5_MODEL_DXF_U
 62
     0
100
AcDbLine
 10
-11.95515204517165
 20
8.921255307199981
 30
0.0
 11
-14.85762335007165
 21
8.921255307199985
 31
0.0
  0
LINE
  5
FD
330
FB
100
AcDbEntity
  8
DXF_US-3015_V5_MODEL_DXF_U
 62
     0
100
AcDbLine
 10
-11.955152
 20
-8.9535
 30
0.0
 11
-14.85762335007165
 21
-8.953499999999998
 31
0.0
  0
LINE
  5
FE
330
FB
100
AcDbEntity
  8
DXF_US-3015_V5_MODEL_DXF_U
 62
     0
100
AcDbLine
 10
-14.67762335007165
 20
8.671255307199985
 30
0.0
 11
-14.67762335007165
 21
0.1363776535999932
 31
0.0
  0
LINE
  5
FF
330
FB
100
AcDbEntity
  8
DXF_US-3015_V5_MODEL_DXF_U
 62
     0
100
AcDbLine
 10
-14.67762335007165
 20
-8.703499999999998
 30
0.0
 11
-14.67762335007165
 21
-0.1686223464000083
 31
0.0
  0
SOLID
  5
100
330
FB
100
AcDbEntity
  8
DXF_US-3015_V5_MODEL_DXF_U
 62
     0
100
AcDbTrace
 10
-14.63595668340498
 20
8.671255307199985
 30
0.0
 11
-14.71929001673831
 21
8.671255307199985
 31
0.0
 12
-14.67762335007165
 22
8.921255307199985
 32
0.0
 13
-14.67762335007165
 23
8.921255307199985
 33
0.0
  0
SOLID
  5
101
330
FB
100
AcDbEntity
  8
DXF_US-3015_V5_MODEL_DXF_U
 62
     0
100
AcDbTrace
 10
-14.71929001673832
 20
-8.703499999999998
 30
0.0
 11
-14.63595668340498
 21
-8.703499999999998
 31
0.0
 12
-14.67762335007165
 22
-8.953499999999998
 32
0.0
 13
-14.67762335007165
 23
-8.953499999999998
 33
0.0
  0
MTEXT
  5
102
330
FB
100
AcDbEntity
  8
DXF_US-3015_V5_MODEL_DXF_U
 62
     0
100
AcDbMText
 10
-14.67762335007165
 20
-0.0161223464000066
 30
0.0
 40
0.125
 41
0.0
 71
     5
 72
     1
  1
\A1;17.8748
  0
POINT
  5
103
330
FB
100
AcDbEntity
  8
DEFPOINTS
 62
     0
100
AcDbPoint
 10
-11.89265204517165
 20
8.921255307199981
 30
0.0
  0
POINT
  5
104
330
FB
100
AcDbEntity
  8
DEFPOINTS
 62
     0
100
AcDbPoint
 10
-11.892652
 20
-8.9535
 30
0.0
  0
POINT
  5
105
330
FB
100
AcDbEntity
  8
DEFPOINTS
 62
     0
100
AcDbPoint
 10
-14.67762335007165
 20
-8.953499999999998
 30
0.0
  0
ENDBLK
  5
107
330
FB
100
AcDbEntity
  8
0
100
AcDbBlockEnd
  0
BLOCK
  5
117
330
10C
100
AcDbEntity
  8
0
100
AcDbBlockBegin
  2
*D4
 70
     1
 71
     0
 10
0.0
 20
0.0
 30
0.0
  3
*D4
  1

  0
LINE
  5
10D
330
10C
100
AcDbEntity
  8
DXF_US-3015_V5_MODEL_DXF_U
 62
     0
100
AcDbLine
 10
14.16984752128758
 20
6.42125530719983
 30
0.0
 11
17.1134878062
 21
6.421255307199829
 31
0.0
  0
LINE
  5
10E
330
10C
100
AcDbEntity
  8
DXF_US-3015_V5_MODEL_DXF_U
 62
     0
100
AcDbLine
 10
14.169848
 20
-8.9535
 30
0.0
 11
17.1134878062
 21
-8.953500000000002
 31
0.0
  0
LINE
  5
10F
330
10C
100
AcDbEntity
  8
DXF_US-3015_V5_MODEL_DXF_U
 62
     0
100
AcDbLine
 10
16.9334878062
 20
6.171255307199829
 30
0.0
 11
16.9334878062
 21
-1.113622346400088
 31
0.0
  0
LINE
  5
110
330
10C
100
AcDbEntity
  8
DXF_US-3015_V5_MODEL_DXF_U
 62
     0
100
AcDbLine
 10
16.9334878062
 20
-8.703500000000002
 30
0.0
 11
16.9334878062
 21
-1.418622346400086
 31
0.0
  0
SOLID
  5
111
330
10C
100
AcDbEntity
  8
DXF_US-3015_V5_MODEL_DXF_U
 62
     0
100
AcDbTrace
 10
16.97515447286667
 20
6.171255307199829
 30
0.0
 11
16.89182113953333
 21
6.171255307199829
 31
0.0
 12
16.9334878062
 22
6.421255307199829
 32
0.0
 13
16.9334878062
 23
6.421255307199829
 33
0.0
  0
SOLID
  5
112
330
10C
100
AcDbEntity
  8
DXF_US-3015_V5_MODEL_DXF_U
 62
     0
100
AcDbTrace
 10
16.89182113953333
 20
-8.703500000000002
 30
0.0
 11
16.97515447286667
 21
-8.703500000000002
 31
0.0
 12
16.9334878062
 22
-8.953500000000002
 32
0.0
 13
16.9334878062
 23
-8.953500000000002
 33
0.0
  0
MTEXT
  5
113
330
10C
100
AcDbEntity
  8
DXF_US-3015_V5_MODEL_DXF_U
 62
     0
100
AcDbMText
 10
16.9334878062
 20
-1.266122346400087
 30
0.0
 40
0.125
 41
0.0
 71
     5
 72
     1
  1
\A1;15.3748
  0
POINT
  5
114
330
10C
100
AcDbEntity
  8
DEFPOINTS
 62
     0
100
AcDbPoint
 10
14.10734752128758
 20
6.42125530719983
 30
0.0
  0
POINT
  5
115
330
10C
100
AcDbEntity
  8
DEFPOINTS
 62
     0
100
AcDbPoint
 10
14.107348
 20
-8.9535
 30
0.0
  0
POINT
  5
116
330
10C
100
AcDbEntity
  8
DEFPOINTS
 62
     0
100
AcDbPoint
 10
16.9334878062
 20
-8.953500000000002
 30
0.0
  0
ENDBLK
  5
118
330
10C
100
AcDbEntity
  8
0
100
AcDbBlockEnd
  0
ENDSEC
  0
SECTION
  2
ENTITIES
  0
LINE
  5
8A
330
1F
100
AcDbEntity
  8
DXF_US-3015_V5_MODEL_DXF_U
 62
    18
100
AcDbLine
 10
-1.361279
 20
8.9215
 30
0.0
 11
-11.892652
 21
8.9215
 31
0.0
  0
ARC
  5
8B
330
1F
100
AcDbEntity
  8
DXF_US-3015_V5_MODEL_DXF_U
 62
    18
100
AcDbCircle
 10
14.06153613625145
 20
-7.030644920162102
 30
0.0
 40
1.923645973048097
100
AcDbArc
 50
271.3646363465716
 51
356.7039598850155
  0
LINE
  5
8C
330
1F
100
AcDbEntity
  8
DXF_US-3015_V5_MODEL_DXF_U
 62
    18
100
AcDbLine
 10
0.2348366787
 20
-1.1673807274
 30
0.0
 11
0.7098366787
 21
-0.6923807274
 31
0.0
  0
LINE
  5
8D
330
1F
100
AcDbEntity
  8
DXF_US-3015_V5_MODEL_DXF_U
 62
    18
100
AcDbLine
 10
0.5677443069
 20
-1.1673807274
 30
0.0
 11
0.9781528323
 21
-0.7714224069
 31
0.0
  0
LINE
  5
8E
330
1F
100
AcDbEntity
  8
DXF_US-3015_V5_MODEL_DXF_U
 62
    18
100
AcDbLine
 10
0.7347049891
 20
-1.1673807274
 30
0.0
 11
1.0127049891
 21
-0.8893807274
 31
0.0
  0
ARC
  5
8F
330
1F
100
AcDbEntity
  8
DXF_US-3015_V5_MODEL_DXF_U
 62
    18
100
AcDbCircle
 10
0.8252049890999996
 20
-0.8798807274000002
 30
0.0
 40
0.1875000000000003
100
AcDbArc
 50
0.0
 51
90.0
  0
LINE
  5
90
330
1F
100
AcDbEntity
  8
DXF_US-3015_V5_MODEL_DXF_U
 62
    18
100
AcDbLine
 10
1.0127049891
 20
-0.8798807274
 30
0.0
 11
1.0127049891
 21
-1.1673807274
 31
0.0
  0
LINE
  5
91
330
1F
100
AcDbEntity
  8
DXF_US-3015_V5_MODEL_DXF_U
 62
     1
100
AcDbLine
 10
3.1599433218
 20
-0.6923807274
 30
0.0
 11
3.1599433218
 21
-0.3504219039
 31
0.0
  0
LINE
  5
92
330
1F
100
AcDbEntity
  8
DXF_US-3015_V5_MODEL_DXF_U
 62
     1
100
AcDbLine
 10
3.249623555
 20
-0.195539749
 30
0.0
 11
3.1599433218
 21
-0.3504219039
 31
0.0
  0
LINE
  5
93
330
1F
100
AcDbEntity
  8
DXF_US-3015_V5_MODEL_DXF_U
 62
     1
100
AcDbLine
 10
3.1599433218
 20
-1.2694232568
 30
0.0
 11
3.1599433218
 21
-0.6923807274
 31
0.0
  0
LINE
  5
94
330
1F
100
AcDbEntity
  8
DXF_US-3015_V5_MODEL_DXF_U
 62
    18
100
AcDbLine
 10
0.9017049891
 20
-1.1673807274
 30
0.0
 11
1.0127049891
 21
-1.0563807274
 31
0.0
  0
LINE
  5
95
330
1F
100
AcDbEntity
  8
DXF_US-3015_V5_MODEL_DXF_U
 62
    18
100
AcDbLine
 10
0.4018697813
 20
-1.1673807274
 30
0.0
 11
0.8711527622
 21
-0.6980977465
 31
0.0
  0
POINT
  5
96
330
1F
100
AcDbEntity
  8
DXF_US-3015_V5_MODEL_DXF_U
 62
    18
100
AcDbPoint
 10
0.2348366787
 20
-1.1673807274
 30
0.0
  0
LINE
  5
97
330
1F
100
AcDbEntity
  8
DXF_US-3015_V5_MODEL_DXF_U
 62
    18
100
AcDbLine
 10
14.107348
 20
6.4215
 30
0.0
 11
2.607348
 21
6.4215
 31
0.0
  0
ARC
  5
98
330
1F
100
AcDbEntity
  8
DXF_US-3015_V5_MODEL_DXF_U
 62
    18
100
AcDbCircle
 10
14.06153615941787
 20
4.498154930881382
 30
0.0
 40
1.923645949303695
100
AcDbArc
 50
3.296039835911181
 51
88.6353799350977
  0
ARC
  5
99
330
1F
100
AcDbEntity
  8
DXF_US-3015_V5_MODEL_DXF_U
 62
    18
100
AcDbCircle
 10
2.607346612399998
 20
8.808752371099999
 30
0.0
 40
2.387499999999997
100
AcDbArc
 50
205.5829645993999
 51
270.0000383146
  0
LINE
  5
9A
330
1F
100
AcDbEntity
  8
DXF_US-3015_V5_MODEL_DXF_U
 62
     5
100
AcDbLine
 10
1.5197770271
 20
1.7574274227
 30
0.0
 11
1.7497610837
 21
1.7574274227
 31
0.0
  0
LINE
  5
9B
330
1F
100
AcDbEntity
  8
DXF_US-3015_V5_MODEL_DXF_U
 62
     5
100
AcDbLine
 10
0.8242169829
 20
0.5576192726
 30
0.0
 11
1.5197770271
 21
1.7574274227
 31
0.0
  0
TEXT
  5
9D
330
1F
100
AcDbEntity
  8
DXF_US-3015_V5_MODEL_DXF_U
 62
     5
100
AcDbText
 10
1.7997558231
 20
1.85
 30
0.0
 40
0.125
  1
COUNTERTOP
  7
TEXT37
100
AcDbText
  0
LINE
  5
9E
330
1F
100
AcDbEntity
  8
DXF_US-3015_V5_MODEL_DXF_U
 62
     1
100
AcDbLine
 10
3.1599433218
 20
0.1748306214
 30
0.0
 11
3.1599433218
 21
0.5576192726
 31
0.0
  0
LINE
  5
9F
330
1F
100
AcDbEntity
  8
DXF_US-3015_V5_MODEL_DXF_U
 62
    18
100
AcDbLine
 10
-0.7557735757
 20
-1.1557923664
 30
0.0
 11
-0.2923619367
 21
-0.6923807274
 31
0.0
  0
LINE
  5
A0
330
1F
100
AcDbEntity
  8
DXF_US-3015_V5_MODEL_DXF_U
 62
    18
100
AcDbLine
 10
-0.6528562912
 20
-3.2358571837
 30
0.0
 11
-0.4913705504
 21
-1.3979378831
 31
0.0
  0
ARC
  5
A1
330
1F
100
AcDbEntity
  8
DXF_US-3015_V5_MODEL_DXF_U
 62
    18
100
AcDbCircle
 10
-0.2397834878999998
 20
-1.4199268948
 30
0.0
 40
0.2525461674000002
100
AcDbArc
 50
90.0
 51
175.0049731570998
  0
DIMENSION
  5
A3
330
1F
100
AcDbEntity
  8
DXF_US-3015_V5_MODEL_DXF_U
 62
     5
100
AcDbDimension
  2
*D1
 10
-0.7149149893
 20
-0.8430618048
 30
0.0
 11
0.1667516773666667
 21
-0.8430618048
 31
0.0
 70
    32
  3
ROTATEDDIM8
100
AcDbAlignedDimension
 13
-0.8400566782
 23
-0.6923807274
 33
0.0
 14
-0.7149149893
 24
-0.6923807274
 34
0.0
100
AcDbRotatedDimension
  0
LINE
  5
B2
330
1F
100
AcDbEntity
  8
DXF_US-3015_V5_MODEL_DXF_U
 62
    18
100
AcDbLine
 10
-0.7718633659
 20
-1.3389152592
 30
0.0
 11
-0.1253288341
 21
-0.6923807274
 31
0.0
  0
LINE
  5
B3
330
1F
100
AcDbEntity
  8
DXF_US-3015_V5_MODEL_DXF_U
 62
     1
100
AcDbLine
 10
-1.0877318219
 20
-2.9460358092
 30
0.0
 11
-0.9197630719
 21
-3.0222076842
 31
0.0
  0
LINE
  5
B4
330
1F
100
AcDbEntity
  8
DXF_US-3015_V5_MODEL_DXF_U
 62
     1
100
AcDbLine
 10
-0.6346068219
 20
-3.2585358092
 30
0.0
 11
-0.4435781363
 21
-3.3504092749
 31
0.0
  0
LINE
  5
B5
330
1F
100
AcDbEntity
  8
DXF_US-3015_V5_MODEL_DXF_U
 62
    18
100
AcDbLine
 10
-0.8684021072
 20
-2.4376526159
 30
0.0
 11
-0.5552048031
 21
-2.1244553118
 31
0.0
  0
LINE
  5
B6
330
1F
100
AcDbEntity
  8
DXF_US-3015_V5_MODEL_DXF_U
 62
    18
100
AcDbLine
 10
-0.8040429463
 20
-1.7051610447
 30
0.0
 11
-0.4913705504
 21
-1.3979378831
 31
0.0
  0
LINE
  5
B7
330
1F
100
AcDbEntity
  8
DXF_US-3015_V5_MODEL_DXF_U
 62
    18
100
AcDbLine
 10
-0.8269255169
 20
-3.0643084359
 30
0.0
 11
-0.619563964
 21
-2.8569468829
 31
0.0
  0
LINE
  5
B8
330
1F
100
AcDbEntity
  8
DXF_US-3015_V5_MODEL_DXF_U
 62
    18
100
AcDbLine
 10
-0.852312317
 20
-2.2545297231
 30
0.0
 11
-0.5391150129
 21
-1.941332419
 31
0.0
  0
LINE
  5
B9
330
1F
100
AcDbEntity
  8
DXF_US-3015_V5_MODEL_DXF_U
 62
    18
100
AcDbLine
 10
-0.8362225268
 20
-2.0714068303
 30
0.0
 11
-0.5230252227
 21
-1.7582095262
 31
0.0
  0
LINE
  5
BA
330
1F
100
AcDbEntity
  8
DXF_US-3015_V5_MODEL_DXF_U
 62
    18
100
AcDbLine
 10
-0.8201327365
 20
-1.8882839375
 30
0.0
 11
-0.5069354325
 21
-1.5750866335
 31
0.0
  0
LINE
  5
BB
330
1F
100
AcDbEntity
  8
DXF_US-3015_V5_MODEL_DXF_U
 62
    18
100
AcDbLine
 10
-0.8844918974
 20
-2.6207755087
 30
0.0
 11
-0.5712945934
 21
-2.3075782046
 31
0.0
  0
LINE
  5
BC
330
1F
100
AcDbEntity
  8
DXF_US-3015_V5_MODEL_DXF_U
 62
     1
100
AcDbLine
 10
-0.661313311
 20
-3.2220369407
 30
0.0
 11
-0.6346068219
 21
-3.2585358092
 31
0.0
  0
LINE
  5
BD
330
1F
100
AcDbEntity
  8
DXF_US-3015_V5_MODEL_DXF_U
 62
     1
100
AcDbLine
 10
-0.7517943219
 20
-3.0983795592
 30
0.0
 11
-0.661313311
 21
-3.2220369407
 31
0.0
  0
LINE
  5
BE
330
1F
100
AcDbEntity
  8
DXF_US-3015_V5_MODEL_DXF_U
 62
    18
100
AcDbLine
 10
-0.7273587793
 20
-3.1317748007
 30
0.0
 11
-0.6356537542
 21
-3.0400697757
 31
0.0
  0
LINE
  5
BF
330
1F
100
AcDbEntity
  8
DXF_US-3015_V5_MODEL_DXF_U
 62
     1
100
AcDbLine
 10
-0.9197630719
 20
-3.0222076842
 30
0.0
 11
-0.7517943219
 21
-3.0983795592
 31
0.0
  0
LINE
  5
C0
330
1F
100
AcDbEntity
  8
DXF_US-3015_V5_MODEL_DXF_U
 62
    18
100
AcDbLine
 10
-0.9197261727
 20
-3.0217880138
 30
0.0
 11
-0.7149149893
 21
-0.6923807274
 31
0.0
  0
LINE
  5
C1
330
1F
100
AcDbEntity
  8
DXF_US-3015_V5_MODEL_DXF_U
 62
    18
100
AcDbLine
 10
-0.9166714779
 20
-2.9870212942
 30
0.0
 11
-0.6034741738
 21
-2.6738239902
 31
0.0
  0
LINE
  5
C2
330
1F
100
AcDbEntity
  8
DXF_US-3015_V5_MODEL_DXF_U
 62
    18
100
AcDbLine
 10
-0.9005816876
 20
-2.8038984014
 30
0.0
 11
-0.5873843836
 21
-2.4907010974
 31
0.0
  0
LINE
  5
C3
330
1F
100
AcDbEntity
  8
DXF_US-3015_V5_MODEL_DXF_U
 62
     5
100
AcDbLine
 10
-0.8484548852
 20
-2.2106270958
 30
0.0
 11
-2.2632031635
 21
-2.0863225773
 31
0.0
  0
TEXT
  5
C5
330
1F
100
AcDbEntity
  8
DXF_US-3015_V5_MODEL_DXF_U
 62
     5
100
AcDbText
 10
-2.7002441769
 20
-2.0
 30
0.0
 40
0.125
  1
SINK
  7
TEXT62
100
AcDbText
  0
LINE
  5
C6
330
1F
100
AcDbEntity
  8
DXF_US-3015_V5_MODEL_DXF_U
 62
    18
100
AcDbLine
 10
-0.7396837855
 20
-0.9726694736
 30
0.0
 11
-0.4593950392
 21
-0.6923807274
 31
0.0
  0
ARC
  5
C7
330
1F
100
AcDbEntity
  8
DXF_US-3015_V5_MODEL_DXF_U
 62
    18
100
AcDbCircle
 10
-11.84630547114623
 20
6.996864124149833
 30
0.0
 40
1.924949202011587
100
AcDbArc
 50
91.37963106186345
 51
176.6677091916614
  0
TEXT
  5
C9
330
1F
100
AcDbEntity
  8
DXF_US-3015_V5_MODEL_DXF_U
 62
    18
100
AcDbText
 10
-2.7985805957
 20
-4.3252197877
 30
0.0
 40
0.125
  1
NOTE: THIS TEMPLATE IS FOR THE TYPE OF INSTALLATION SHOWN ABOVE.\PCOUNTERTOP WILL OVERHANG SINK BOWLS BY APPROXIMATELY 1/8".\PCHECK DIMENSIONS FOR PROPER FIT.
  7
TEXT65
100
AcDbText
  0
DIMENSION
  5
CB
330
1F
100
AcDbEntity
  8
DXF_US-3015_V5_MODEL_DXF_U
 62
     5
100
AcDbDimension
  2
*D2
 10
15.982
 20
-10.0024743001
 30
0.0
 11
1.106999999999999
 21
-10.0024743001
 31
0.0
 70
    32
  3
ROTATEDDIM9
100
AcDbAlignedDimension
 13
-13.768
 23
-7.141245
 33
0.0
 14
15.982
 24
-7.141245
 34
0.0
100
AcDbRotatedDimension
  0
TEXT
  5
DA
330
1F
100
AcDbEntity
  8
DXF_US-3015_V5_MODEL_DXF_U
 62
    18
100
AcDbText
 10
-1.1776233049
 20
3.9102241211
 30
0.0
 40
0.125
  1
CUTOUT TEMPLATE FOR MODEL #: 
  7
TEXT68
100
AcDbText
  0
TEXT
  5
DC
330
1F
100
AcDbEntity
  8
DXF_US-3015_V5_MODEL_DXF_U
 62
    18
100
AcDbText
 10
-0.6776233049
 20
3.5530812555
 30
0.0
 40
0.3333333432674408
  1
US-3015
  7
TEXT69
100
AcDbText
  0
LINE
  5
DD
330
1F
100
AcDbEntity
  8
DXF_US-3015_V5_MODEL_DXF_U
 62
    18
100
AcDbLine
 10
-11.892652
 20
-8.9535
 30
0.0
 11
14.107348
 21
-8.9535
 31
0.0
  0
ARC
  5
DE
330
1F
100
AcDbEntity
  8
DXF_US-3015_V5_MODEL_DXF_U
 62
    18
100
AcDbCircle
 10
-1.361280468999998
 20
6.908752188800004
 30
0.0
 40
2.012499999999996
100
AcDbArc
 50
25.58303816659995
 51
89.99996379810005
  0
LINE
  5
DF
330
1F
100
AcDbEntity
  8
DXF_US-3015_V5_MODEL_DXF_U
 62
    18
100
AcDbLine
 10
-0.2397834879
 20
-1.1673807274
 30
0.0
 11
1.0127049891
 21
-1.1673807274
 31
0.0
  0
LINE
  5
E0
330
1F
100
AcDbEntity
  8
DXF_US-3015_V5_MODEL_DXF_U
 62
    18
100
AcDbLine
 10
-0.2573462567
 20
-1.1679921496
 30
0.0
 11
0.2182651656
 21
-0.6923807274
 31
0.0
  0
LINE
  5
E1
330
1F
100
AcDbEntity
  8
DXF_US-3015_V5_MODEL_DXF_U
 62
    18
100
AcDbLine
 10
0.0678035761
 20
-1.1673807274
 30
0.0
 11
0.5428035761
 21
-0.6923807274
 31
0.0
  0
LINE
  5
E2
330
1F
100
AcDbEntity
  8
DXF_US-3015_V5_MODEL_DXF_U
 62
    18
100
AcDbLine
 10
-0.0992295264
 20
-1.1673807274
 30
0.0
 11
0.3757704736
 21
-0.6923807274
 31
0.0
  0
LINE
  5
E3
330
1F
100
AcDbEntity
  8
DXF_US-3015_V5_MODEL_DXF_U
 62
    18
100
AcDbLine
 10
-0.7149518885
 20
-0.6923807274
 30
-1.0
 11
0.8252049891
 21
-0.691961057
 31
-1.0
  0
LINE
  5
E4
330
1F
100
AcDbEntity
  8
DXF_US-3015_V5_MODEL_DXF_U
 62
    18
100
AcDbLine
 10
-0.7149518885
 20
-0.6923807274
 30
-1.0
 11
0.8252050463
 21
-0.6923807274
 31
-1.0
  0
LINE
  5
E5
330
1F
100
AcDbEntity
  8
DXF_US-3015_V5_MODEL_DXF_U
 62
     3
100
AcDbLine
 10
3.1599433218
 20
0.5576192726
 30
0.0
 11
-0.8400566782
 21
0.5576192726
 31
0.0
  0
LINE
  5
E6
330
1F
100
AcDbEntity
  8
DXF_US-3015_V5_MODEL_DXF_U
 62
     3
100
AcDbLine
 10
2.9158496064
 20
0.5576192726
 30
0.0
 11
3.1599433218
 21
0.3135255572
 31
0.0
  0
LINE
  5
E7
330
1F
100
AcDbEntity
  8
DXF_US-3015_V5_MODEL_DXF_U
 62
     3
100
AcDbLine
 10
2.5817834013
 20
0.5576192726
 30
0.0
 11
3.0814523441
 21
0.0579503298
 31
0.0
  0
LINE
  5
E8
330
1F
100
AcDbEntity
  8
DXF_US-3015_V5_MODEL_DXF_U
 62
     3
100
AcDbLine
 10
2.2477171962
 20
0.5576192726
 30
0.0
 11
3.1599433218
 21
-0.354606853
 31
0.0
  0
LINE
  5
E9
330
1F
100
AcDbEntity
  8
DXF_US-3015_V5_MODEL_DXF_U
 62
     3
100
AcDbLine
 10
1.9136509911
 20
0.5576192726
 30
0.0
 11
3.1599433218
 21
-0.6886730582
 31
0.0
  0
LINE
  5
EA
330
1F
100
AcDbEntity
  8
DXF_US-3015_V5_MODEL_DXF_U
 62
     3
100
AcDbLine
 10
1.5795847859
 20
0.5576192726
 30
0.0
 11
2.8295847859
 21
-0.6923807274
 31
0.0
  0
LINE
  5
EB
330
1F
100
AcDbEntity
  8
DXF_US-3015_V5_MODEL_DXF_U
 62
     3
100
AcDbLine
 10
1.2455185808
 20
0.5576192726
 30
0.0
 11
2.4955185808
 21
-0.6923807274
 31
0.0
  0
LINE
  5
EC
330
1F
100
AcDbEntity
  8
DXF_US-3015_V5_MODEL_DXF_U
 62
     3
100
AcDbLine
 10
0.9114523757
 20
0.5576192726
 30
0.0
 11
2.1614523757
 21
-0.6923807274
 31
0.0
  0
LINE
  5
ED
330
1F
100
AcDbEntity
  8
DXF_US-3015_V5_MODEL_DXF_U
 62
     3
100
AcDbLine
 10
0.5773861705
 20
0.5576192726
 30
0.0
 11
1.8273861705
 21
-0.6923807274
 31
0.0
  0
LINE
  5
EE
330
1F
100
AcDbEntity
  8
DXF_US-3015_V5_MODEL_DXF_U
 62
     3
100
AcDbLine
 10
0.2433199654
 20
0.5576192726
 30
0.0
 11
1.4933199654
 21
-0.6923807274
 31
0.0
  0
LINE
  5
EF
330
1F
100
AcDbEntity
  8
DXF_US-3015_V5_MODEL_DXF_U
 62
     3
100
AcDbLine
 10
-0.0907462397
 20
0.5576192726
 30
0.0
 11
1.1592537603
 21
-0.6923807274
 31
0.0
  0
LINE
  5
F0
330
1F
100
AcDbEntity
  8
DXF_US-3015_V5_MODEL_DXF_U
 62
     3
100
AcDbLine
 10
-0.4248124448
 20
0.5576192726
 30
0.0
 11
0.8251875552
 21
-0.6923807274
 31
0.0
  0
LINE
  5
F1
330
1F
100
AcDbEntity
  8
DXF_US-3015_V5_MODEL_DXF_U
 62
     3
100
AcDbLine
 10
-0.75887865
 20
0.5576192726
 30
0.0
 11
0.49112135
 21
-0.6923807274
 31
0.0
  0
LINE
  5
F2
330
1F
100
AcDbEntity
  8
DXF_US-3015_V5_MODEL_DXF_U
 62
     3
100
AcDbLine
 10
-0.8400566782
 20
0.3047310957
 30
0.0
 11
0.1570551449
 21
-0.6923807274
 31
0.0
  0
LINE
  5
F3
330
1F
100
AcDbEntity
  8
DXF_US-3015_V5_MODEL_DXF_U
 62
     3
100
AcDbLine
 10
-0.8400566782
 20
-0.0293351095
 30
0.0
 11
-0.1770110602
 21
-0.6923807274
 31
0.0
  0
LINE
  5
F4
330
1F
100
AcDbEntity
  8
DXF_US-3015_V5_MODEL_DXF_U
 62
     3
100
AcDbLine
 10
-0.8400566782
 20
-0.3634013146
 30
0.0
 11
-0.5110772654
 21
-0.6923807274
 31
0.0
  0
LINE
  5
F5
330
1F
100
AcDbEntity
  8
DXF_US-3015_V5_MODEL_DXF_U
 62
     3
100
AcDbLine
 10
-0.8400566782
 20
-0.6923807274
 30
0.0
 11
3.1599433218
 21
-0.6923807274
 31
0.0
  0
LINE
  5
F6
330
1F
100
AcDbEntity
  8
DXF_US-3015_V5_MODEL_DXF_U
 62
    18
100
AcDbLine
 10
-0.7879531561
 20
-1.522038152
 30
0.0
 11
0.0417042685
 21
-0.6923807274
 31
0.0
  0
TEXT
  5
F8
330
1F
100
AcDbEntity
  8
DXF_US-3015_V5_MODEL_DXF_U
 62
    18
100
AcDbText
 10
-0.9276233049
 20
2.9132061215
 30
0.0
 40
0.125
  1
UNDERMOUNT KITCHEN SINK 
  7
TEXT96
100
AcDbText
  0
DIMENSION
  5
FA
330
1F
100
AcDbEntity
  8
DXF_US-3015_V5_MODEL_DXF_U
 62
     5
100
AcDbDimension
  2
*D3
 10
-14.67762335007165
 20
-8.953499999999998
 30
0.0
 11
-14.67762335007165
 21
-0.0161223464000066
 31
0.0
 70
    32
  3
ROTATEDDIM10
100
AcDbAlignedDimension
 13
-11.89265204517165
 23
8.921255307199981
 33
0.0
 14
-11.892652
 24
-8.9535
 34
0.0
 50
90.0
100
AcDbRotatedDimension
  0
LINE
  5
108
330
1F
100
AcDbEntity
  8
DXF_US-3015_V5_MODEL_DXF_U
 62
    18
100
AcDbLine
 10
-13.768
 20
7.108755
 30
0.0
 11
-13.768
 21
-7.141245
 31
0.0
  0
LINE
  5
109
330
1F
100
AcDbEntity
  8
DXF_US-3015_V5_MODEL_DXF_U
 62
     3
100
AcDbLine
 10
-0.8400566782
 20
0.5576192726
 30
0.0
 11
-0.8400566782
 21
-0.6923807274
 31
0.0
  0
DIMENSION
  5
10B
330
1F
100
AcDbEntity
  8
DXF_US-3015_V5_MODEL_DXF_U
 62
     5
100
AcDbDimension
  2
*D4
 10
16.9334878062
 20
-8.953500000000002
 30
0.0
 11
16.9334878062
 21
-1.266122346400087
 31
0.0
 70
    32
  3
ROTATEDDIM11
100
AcDbAlignedDimension
 13
14.10734752128758
 23
6.42125530719983
 33
0.0
 14
14.107348
 24
-8.9535
 34
0.0
 50
90.0
100
AcDbRotatedDimension
  0
LINE
  5
119
330
1F
100
AcDbEntity
  8
DXF_US-3015_V5_MODEL_DXF_U
 62
    18
100
AcDbLine
 10
15.982
 20
-7.141245
 30
0.0
 11
15.982
 21
4.608755
 31
0.0
  0
LINE
  5
11A
330
1F
100
AcDbEntity
  8
DXF_US-3015_V5_MODEL_DXF_U
 62
     1
100
AcDbLine
 10
3.0694988567
 20
0.0401504867
 30
0.0
 11
3.249623555
 21
-0.195539749
 31
0.0
  0
LINE
  5
11B
330
1F
100
AcDbEntity
  8
DXF_US-3015_V5_MODEL_DXF_U
 62
     1
100
AcDbLine
 10
3.1599433218
 20
0.1748306214
 30
0.0
 11
3.0694988567
 21
0.0401504867
 31
0.0
  0
ARC
  5
11C
330
1F
100
AcDbEntity
  8
DXF_US-3015_V5_MODEL_DXF_U
 62
    18
100
AcDbCircle
 10
-11.84630547114621
 20
-7.029354124149815
 30
0.0
 40
1.924949202011605
100
AcDbArc
 50
183.3322908083392
 51
268.6203689381361
  0
SOLID
  5
11D
330
1F
100
AcDbEntity
  8
DXF_US-3015_V5_MODEL_DXF_U
 62
    18
100
AcDbTrace
 10
0.8242169829
 20
0.5576192726
 30
0.0
 11
0.8955312903063846
 21
0.8052490760549712
 31
0.0
 12
0.8242169829
 22
0.5576192726
 32
0.0
 13
1.00367304400209
 23
0.7425564839278526
 33
0.0
  0
POLYLINE
  5
11E
330
1F
100
AcDbEntity
  8
DXF_US-3015_V5_MODEL_DXF_U
 62
    18
100
AcDb3dPolyline
 66
     1
 10
0.0
 20
0.0
 30
0.0
 70
     8
  0
VERTEX
  5
11F
330
11E
100
AcDbEntity
  8
DXF_US-3015_V5_MODEL_DXF_U
 62
    18
100
AcDbVertex
100
AcDb3dPolylineVertex
 10
0.8242169618606567
 20
0.5576192736625671
 30
0.0
 70
    32
  0
VERTEX
  5
120
330
11E
100
AcDbEntity
  8
DXF_US-3015_V5_MODEL_DXF_U
 62
    18
100
AcDbVertex
100
AcDb3dPolylineVertex
 10
0.8955312967300415
 20
0.8052490949630737
 30
0.0
 70
    32
  0
VERTEX
  5
121
330
11E
100
AcDbEntity
  8
DXF_US-3015_V5_MODEL_DXF_U
 62
    18
100
AcDbVertex
100
AcDb3dPolylineVertex
 10
1.003673076629639
 20
0.7425565123558044
 30
0.0
 70
    32
  0
VERTEX
  5
122
330
11E
100
AcDbEntity
  8
DXF_US-3015_V5_MODEL_DXF_U
 62
    18
100
AcDbVertex
100
AcDb3dPolylineVertex
 10
0.8242169618606567
 20
0.5576192736625671
 30
0.0
 70
    32
  0
VERTEX
  5
123
330
11E
100
AcDbEntity
  8
DXF_US-3015_V5_MODEL_DXF_U
 62
    18
100
AcDbVertex
100
AcDb3dPolylineVertex
 10
0.8242169618606567
 20
0.5576192736625671
 30
0.0
 70
    32
  0
SEQEND
  5
124
330
11E
100
AcDbEntity
  8
DXF_US-3015_V5_MODEL_DXF_U
 62
    18
  0
POLYLINE
  5
125
330
1F
100
AcDbEntity
  8
DXF_US-3015_V5_MODEL_DXF_U
 62
    18
100
AcDb3dPolyline
 66
     1
 10
0.0
 20
0.0
 30
0.0
 70
     8
  0
VERTEX
  5
126
330
125
100
AcDbEntity
  8
DXF_US-3015_V5_MODEL_DXF_U
 62
    18
100
AcDbVertex
100
AcDb3dPolylineVertex
 10
0.8242169618606567
 20
0.5576192736625671
 30
0.0
 70
    32
  0
VERTEX
  5
127
330
125
100
AcDbEntity
  8
DXF_US-3015_V5_MODEL_DXF_U
 62
    18
100
AcDbVertex
100
AcDb3dPolylineVertex
 10
0.8955312967300415
 20
0.8052490949630737
 30
0.0
 70
    32
  0
VERTEX
  5
128
330
125
100
AcDbEntity
  8
DXF_US-3015_V5_MODEL_DXF_U
 62
    18
100
AcDbVertex
100
AcDb3dPolylineVertex
 10
1.003673076629639
 20
0.7425565123558044
 30
0.0
 70
    32
  0
VERTEX
  5
129
330
125
100
AcDbEntity
  8
DXF_US-3015_V5_MODEL_DXF_U
 62
    18
100
AcDbVertex
100
AcDb3dPolylineVertex
 10
0.8242169618606567
 20
0.5576192736625671
 30
0.0
 70
    32
  0
VERTEX
  5
12A
330
125
100
AcDbEntity
  8
DXF_US-3015_V5_MODEL_DXF_U
 62
    18
100
AcDbVertex
100
AcDb3dPolylineVertex
 10
0.8242169618606567
 20
0.5576192736625671
 30
0.0
 70
    32
  0
SEQEND
  5
12B
330
125
100
AcDbEntity
  8
DXF_US-3015_V5_MODEL_DXF_U
 62
    18
  0
POLYLINE
  5
12C
330
1F
100
AcDbEntity
  8
DXF_US-3015_V5_MODEL_DXF_U
 62
    18
100
AcDb3dPolyline
 66
     1
 10
0.0
 20
0.0
 30
0.0
 70
     8
  0
VERTEX
  5
12D
330
12C
100
AcDbEntity
  8
DXF_US-3015_V5_MODEL_DXF_U
 62
    18
100
AcDbVertex
100
AcDb3dPolylineVertex
 10
0.8242169618606567
 20
0.5576192736625671
 30
0.0
 70
    32
  0
VERTEX
  5
12E
330
12C
100
AcDbEntity
  8
DXF_US-3015_V5_MODEL_DXF_U
 62
    18
100
AcDbVertex
100
AcDb3dPolylineVertex
 10
0.8955312967300415
 20
0.8052490949630737
 30
0.0
 70
    32
  0
VERTEX
  5
12F
330
12C
100
AcDbEntity
  8
DXF_US-3015_V5_MODEL_DXF_U
 62
    18
100
AcDbVertex
100
AcDb3dPolylineVertex
 10
1.003673076629639
 20
0.7425565123558044
 30
0.0
 70
    32
  0
VERTEX
  5
130
330
12C
100
AcDbEntity
  8
DXF_US-3015_V5_MODEL_DXF_U
 62
    18
100
AcDbVertex
100
AcDb3dPolylineVertex
 10
0.8242169618606567
 20
0.5576192736625671
 30
0.0
 70
    32
  0
VERTEX
  5
131
330
12C
100
AcDbEntity
  8
DXF_US-3015_V5_MODEL_DXF_U
 62
    18
100
AcDbVertex
100
AcDb3dPolylineVertex
 10
0.8242169618606567
 20
0.5576192736625671
 30
0.0
 70
    32
  0
SEQEND
  5
132
330
12C
100
AcDbEntity
  8
DXF_US-3015_V5_MODEL_DXF_U
 62
    18
  0
SOLID
  5
133
330
1F
100
AcDbEntity
  8
DXF_US-3015_V5_MODEL_DXF_U
 62
    18
100
AcDbTrace
 10
-0.8484548852
 20
-2.2106270958
 30
0.0
 11
-1.10296582500895
 21
-2.25100569802401
 31
0.0
 12
-0.8484548852
 22
-2.2106270958
 32
0.0
 13
-1.092025056666255
 23
-2.126485420205209
 33
0.0
  0
POLYLINE
  5
134
330
1F
100
AcDbEntity
  8
DXF_US-3015_V5_MODEL_DXF_U
 62
    18
100
AcDb3dPolyline
 66
     1
 10
0.0
 20
0.0
 30
0.0
 70
     8
  0
VERTEX
  5
135
330
134
100
AcDbEntity
  8
DXF_US-3015_V5_MODEL_DXF_U
 62
    18
100
AcDbVertex
100
AcDb3dPolylineVertex
 10
-0.8484548926353455
 20
-2.21062707901001
 30
0.0
 70
    32
  0
VERTEX
  5
136
330
134
100
AcDbEntity
  8
DXF_US-3015_V5_MODEL_DXF_U
 62
    18
100
AcDbVertex
100
AcDb3dPolylineVertex
 10
-1.102965831756592
 20
-2.25100564956665
 30
0.0
 70
    32
  0
VERTEX
  5
137
330
134
100
AcDbEntity
  8
DXF_US-3015_V5_MODEL_DXF_U
 62
    18
100
AcDbVertex
100
AcDb3dPolylineVertex
 10
-1.0920250415802
 20
-2.126485347747803
 30
0.0
 70
    32
  0
VERTEX
  5
138
330
134
100
AcDbEntity
  8
DXF_US-3015_V5_MODEL_DXF_U
 62
    18
100
AcDbVertex
100
AcDb3dPolylineVertex
 10
-0.8484548926353455
 20
-2.21062707901001
 30
0.0
 70
    32
  0
VERTEX
  5
139
330
134
100
AcDbEntity
  8
DXF_US-3015_V5_MODEL_DXF_U
 62
    18
100
AcDbVertex
100
AcDb3dPolylineVertex
 10
-0.8484548926353455
 20
-2.21062707901001
 30
0.0
 70
    32
  0
SEQEND
  5
13A
330
134
100
AcDbEntity
  8
DXF_US-3015_V5_MODEL_DXF_U
 62
    18
  0
POLYLINE
  5
13B
330
1F
100
AcDbEntity
  8
DXF_US-3015_V5_MODEL_DXF_U
 62
    18
100
AcDb3dPolyline
 66
     1
 10
0.0
 20
0.0
 30
0.0
 70
     8
  0
VERTEX
  5
13C
330
13B
100
AcDbEntity
  8
DXF_US-3015_V5_MODEL_DXF_U
 62
    18
100
AcDbVertex
100
AcDb3dPolylineVertex
 10
-0.8484548926353455
 20
-2.21062707901001
 30
0.0
 70
    32
  0
VERTEX
  5
13D
330
13B
100
AcDbEntity
  8
DXF_US-3015_V5_MODEL_DXF_U
 62
    18
100
AcDbVertex
100
AcDb3dPolylineVertex
 10
-1.102965831756592
 20
-2.25100564956665
 30
0.0
 70
    32
  0
VERTEX
  5
13E
330
13B
100
AcDbEntity
  8
DXF_US-3015_V5_MODEL_DXF_U
 62
    18
100
AcDbVertex
100
AcDb3dPolylineVertex
 10
-1.0920250415802
 20
-2.126485347747803
 30
0.0
 70
    32
  0
VERTEX
  5
13F
330
13B
100
AcDbEntity
  8
DXF_US-3015_V5_MODEL_DXF_U
 62
    18
100
AcDbVertex
100
AcDb3dPolylineVertex
 10
-0.8484548926353455
 20
-2.21062707901001
 30
0.0
 70
    32
  0
VERTEX
  5
140
330
13B
100
AcDbEntity
  8
DXF_US-3015_V5_MODEL_DXF_U
 62
    18
100
AcDbVertex
100
AcDb3dPolylineVertex
 10
-0.8484548926353455
 20
-2.21062707901001
 30
0.0
 70
    32
  0
SEQEND
  5
141
330
13B
100
AcDbEntity
  8
DXF_US-3015_V5_MODEL_DXF_U
 62
    18
  0
POLYLINE
  5
142
330
1F
100
AcDbEntity
  8
DXF_US-3015_V5_MODEL_DXF_U
 62
    18
100
AcDb3dPolyline
 66
     1
 10
0.0
 20
0.0
 30
0.0
 70
     8
  0
VERTEX
  5
143
330
142
100
AcDbEntity
  8
DXF_US-3015_V5_MODEL_DXF_U
 62
    18
100
AcDbVertex
100
AcDb3dPolylineVertex
 10
-0.8484548926353455
 20
-2.21062707901001
 30
0.0
 70
    32
  0
VERTEX
  5
144
330
142
100
AcDbEntity
  8
DXF_US-3015_V5_MODEL_DXF_U
 62
    18
100
AcDbVertex
100
AcDb3dPolylineVertex
 10
-1.102965831756592
 20
-2.25100564956665
 30
0.0
 70
    32
  0
VERTEX
  5
145
330
142
100
AcDbEntity
  8
DXF_US-3015_V5_MODEL_DXF_U
 62
    18
100
AcDbVertex
100
AcDb3dPolylineVertex
 10
-1.0920250415802
 20
-2.126485347747803
 30
0.0
 70
    32
  0
VERTEX
  5
146
330
142
100
AcDbEntity
  8
DXF_US-3015_V5_MODEL_DXF_U
 62
    18
100
AcDbVertex
100
AcDb3dPolylineVertex
 10
-0.8484548926353455
 20
-2.21062707901001
 30
0.0
 70
    32
  0
VERTEX
  5
147
330
142
100
AcDbEntity
  8
DXF_US-3015_V5_MODEL_DXF_U
 62
    18
100
AcDbVertex
100
AcDb3dPolylineVertex
 10
-0.8484548926353455
 20
-2.21062707901001
 30
0.0
 70
    32
  0
SEQEND
  5
148
330
142
100
AcDbEntity
  8
DXF_US-3015_V5_MODEL_DXF_U
 62
    18
  0
VIEWPORT
  5
3F
330
1B
100
AcDbEntity
 67
     1
  8
0
100
AcDbViewport
 10
0.0
 20
0.0
 30
0.0
 40
1.0
 41
1.0
 68
     1
 69
     1
1001
ACAD
1000
MVIEW
1002
{
1070
    16
1010
0.0
1020
0.0
1030
0.0
1010
0.0
1020
0.0
1030
1.0
1040
0.0
1040
1.0
1040
0.0
1040
0.0
1040
50.0
1040
0.0
1040
0.0
1070
     0
1070
   100
1070
     0
1070
     3
1070
     0
1070
     0
1070
     0
1070
     0
1040
0.0
1040
0.0
1040
0.0
1040
0.5
1040
0.5
1040
0.0
1040
0.0
1070
     0
1002
{
1002
}
1002
}
  0
ENDSEC
  0
SECTION
  2
OBJECTS
  0
DICTIONARY
  5
C
330
0
100
AcDbDictionary
  3
ACAD_GROUP
350
D
  3
ACAD_LAYOUT
350
1A
  3
ACAD_MLINESTYLE
350
17
  3
ACAD_PLOTSETTINGS
350
19
  3
ACAD_TABLESTYLE
350
169
  3
ACAD_VISUALSTYLE
350
2A
  3
ACDBHEADERROUNDTRIPXREC
350
149
  0
DICTIONARY
  5
D
102
{ACAD_REACTORS
330
C
102
}
330
C
100
AcDbDictionary
  0
DICTIONARY
  5
1A
102
{ACAD_REACTORS
330
C
102
}
330
C
100
AcDbDictionary
  0
DICTIONARY
  5
17
102
{ACAD_REACTORS
330
C
102
}
330
C
100
AcDbDictionary
  3
STANDARD
350
18
  0
DICTIONARY
  5
19
102
{ACAD_REACTORS
330
C
102
}
330
C
100
AcDbDictionary
  0
DICTIONARY
  5
169
102
{ACAD_REACTORS
330
C
102
}
330
C
100
AcDbDictionary
  0
DICTIONARY
  5
2A
102
{ACAD_REACTORS
330
C
102
}
330
C
100
AcDbDictionary
  3
2DWIREFRAME
350
2F
  3
3D_HIDDEN
350
31
  3
3DWIREFRAME
350
30
  3
BASIC
350
32
  3
BRIGHTEN
350
36
  3
COLORCHANGE
350
3A
  3
CONCEPTUAL
350
34
  3
DIM
350
35
  3
FACEPATTERN
350
39
  3
FLAT
350
2B
  3
FLATWITHEDGES
350
2C
  3
GOURAUD
350
2D
  3
GOURAUDWITHEDGES
350
2E
  3
LINEPATTERN
350
38
  3
REALISTIC
350
33
  3
THICKEN
350
37
  0
DICTIONARY
  5
149
102
{ACAD_REACTORS
330
C
102
}
330
C
100
AcDbDictionary
  3
CEPSNTYPE
350
152
  3
DIMSTYLEDATA
350
168
  3
FINGERPRINTGUID
350
153
  3
HYPERLINKBASE
350
14C
  3
INSUNITS
350
151
  3
LAYOUTDICT
350
14E
  3
LWETCUNION
350
150
  3
PLOTSETDICT
350
14F
  3
PSVPSCALE
350
155
  3
PUCSBASE
350
158
  3
PUCSORGBACK
350
15E
  3
PUCSORGBOTTOM
350
15A
  3
PUCSORGFRONT
350
15D
  3
PUCSORGLEFT
350
15B
  3
PUCSORGRIGHT
350
15C
  3
PUCSORGTOP
350
159
  3
PUCSORTHOREF
350
156
  3
PUCSORTHOVIEW
350
157
  3
STYLESHEET
350
14D
  3
TSTACKALIGN
350
14A
  3
TSTACKSIZE
350
14B
  3
UCSBASE
350
161
  3
UCSORGBACK
350
167
  3
UCSORGBOTTOM
350
163
  3
UCSORGFRONT
350
166
  3
UCSORGLEFT
350
164
  3
UCSORGRIGHT
350
165
  3
UCSORGTOP
350
162
  3
UCSORTHOREF
350
15F
  3
UCSORTHOVIEW
350
160
  3
VERSIONGUID
350
154
  0
MLINESTYLE
  5
18
102
{ACAD_REACTORS
330
17
102
}
330
17
100
AcDbMlineStyle
  2
Standard
 70
     0
  3

 62
   256
 51
90.0
 52
90.0
 71
     2
 49
0.5
 62
   256
  6
BYLAYER
 49
-0.5
 62
   256
  6
BYLAYER
  0
VISUALSTYLE
  5
2F
102
{ACAD_REACTORS
330
2A
102
}
330
2A
100
AcDbVisualStyle
  2
2dWireframe
 70
     4
 71
     0
 72
     2
 73
     0
 90
        0
 40
-0.6
 41
-30.0
 62
     5
 63
     7
 74
     1
 91
        4
 64
     7
 65
   257
 75
     1
175
     1
 42
1.0
 92
        0
 66
   257
 43
1.0
 76
     1
 77
     6
 78
     2
 67
     7
 79
     5
170
     0
171
     0
290
     0
174
     0
 93
        1
 44
0.0
173
     0
291
     0
 45
0.0
1001
ACAD
1000
AcDbSavedByObjectVersion
1070
     0
  0
VISUALSTYLE
  5
31
102
{ACAD_REACTORS
330
2A
102
}
330
2A
100
AcDbVisualStyle
  2
3D Hidden
 70
     6
 71
     1
 72
     2
 73
     2
 90
        0
 40
-0.6
 41
-30.0
 62
     5
 63
     7
 74
     2
 91
        2
 64
     7
 65
   257
 75
     2
175
     1
 42
40.0
 92
        0
 66
   257
 43
1.0
 76
     1
 77
     6
 78
     2
 67
     7
 79
     3
170
     0
171
     0
290
     0
174
     0
 93
        1
 44
0.0
173
     0
291
     0
 45
0.0
1001
ACAD
1000
AcDbSavedByObjectVersion
1070
     0
  0
VISUALSTYLE
  5
30
102
{ACAD_REACTORS
330
2A
102
}
330
2A
100
AcDbVisualStyle
  2
3dWireframe
 70
     5
 71
     0
 72
     2
 73
     0
 90
        0
 40
-0.6
 41
-30.0
 62
     5
 63
     7
 74
     1
 91
        4
 64
     7
 65
   257
 75
     1
175
     1
 42
1.0
 92
        0
 66
   257
 43
1.0
 76
     1
 77
     6
 78
     2
 67
     7
 79
     5
170
     0
171
     0
290
     0
174
     0
 93
        1
 44
0.0
173
     0
291
     0
 45
0.0
1001
ACAD
1000
AcDbSavedByObjectVersion
1070
     0
  0
VISUALSTYLE
  5
32
102
{ACAD_REACTORS
330
2A
102
}
330
2A
100
AcDbVisualStyle
  2
Basic
 70
     7
 71
     1
 72
     0
 73
     1
 90
        0
 40
-0.6
 41
-30.0
 62
     5
 63
     7
 74
     0
 91
        4
 64
     7
 65
   257
 75
     1
175
     1
 42
1.0
 92
        8
 66
     7
 43
1.0
 76
     1
 77
     6
 78
     2
 67
     7
 79
     5
170
     0
171
     0
290
     0
174
     0
 93
        1
 44
0.0
173
     0
291
     1
 45
0.0
1001
ACAD
1000
AcDbSavedByObjectVersion
1070
     0
  0
VISUALSTYLE
  5
36
102
{ACAD_REACTORS
330
2A
102
}
330
2A
100
AcDbVisualStyle
  2
Brighten
 70
    12
 71
     2
 72
     2
 73
     0
 90
        0
 40
-0.6
 41
-30.0
 62
     5
 63
     7
 74
     1
 91
        4
 64
     7
 65
   257
 75
     1
175
     1
 42
1.0
 92
        8
 66
     7
 43
1.0
 76
     1
 77
     6
 78
     2
 67
     7
 79
     5
170
     0
171
     0
290
     0
174
     0
 93
        1
 44
50.0
173
     0
291
     1
 45
0.0
1001
ACAD
1000
AcDbSavedByObjectVersion
1070
     0
  0
VISUALSTYLE
  5
3A
102
{ACAD_REACTORS
330
2A
102
}
330
2A
100
AcDbVisualStyle
  2
ColorChange
 70
    16
 71
     2
 72
     2
 73
     3
 90
        0
 40
-0.6
 41
-30.0
 62
     5
 63
     8
 74
     1
 91
        4
 64
     7
 65
   257
 75
     1
175
     1
 42
1.0
 92
        8
 66
     8
 43
1.0
 76
     1
 77
     6
 78
     2
 67
     7
 79
     5
170
     0
171
     0
290
     0
174
     0
 93
        1
 44
0.0
173
     0
291
     1
 45
0.0
1001
ACAD
1000
AcDbSavedByObjectVersion
1070
     0
  0
VISUALSTYLE
  5
34
102
{ACAD_REACTORS
330
2A
102
}
330
2A
100
AcDbVisualStyle
  2
Conceptual
 70
     9
 71
     3
 72
     2
 73
     0
 90
        0
 40
-0.6
 41
-30.0
 62
     5
 63
     7
 74
     2
 91
        2
 64
     7
 65
   257
 75
     1
175
     1
 42
40.0
 92
        8
 66
     7
 43
1.0
 76
     1
 77
     6
 78
     2
 67
     7
 79
     3
170
     0
171
     0
290
     0
174
     0
 93
        1
 44
0.0
173
     0
291
     0
 45
0.0
1001
ACAD
1000
AcDbSavedByObjectVersion
1070
     0
  0
VISUALSTYLE
  5
35
102
{ACAD_REACTORS
330
2A
102
}
330
2A
100
AcDbVisualStyle
  2
Dim
 70
    11
 71
     2
 72
     2
 73
     0
 90
        0
 40
-0.6
 41
-30.0
 62
     5
 63
     7
 74
     1
 91
        4
 64
     7
 65
   257
 75
     1
175
     1
 42
1.0
 92
        8
 66
     7
 43
1.0
 76
     1
 77
     6
 78
     2
 67
     7
 79
     5
170
     0
171
     0
290
     0
174
     0
 93
        1
 44
-50.0
173
     0
291
     1
 45
0.0
1001
ACAD
1000
AcDbSavedByObjectVersion
1070
     0
  0
VISUALSTYLE
  5
39
102
{ACAD_REACTORS
330
2A
102
}
330
2A
100
AcDbVisualStyle
  2
Facepattern
 70
    15
 71
     2
 72
     2
 73
     0
 90
        0
 40
-0.6
 41
-30.0
 62
     5
 63
     7
 74
     1
 91
        4
 64
     7
 65
   257
 75
     1
175
     1
 42
1.0
 92
        8
 66
     7
 43
1.0
 76
     1
 77
     6
 78
     2
 67
     7
 79
     5
170
     0
171
     0
290
     0
174
     0
 93
        1
 44
0.0
173
     0
291
     1
 45
0.0
1001
ACAD
1000
AcDbSavedByObjectVersion
1070
     0
  0
VISUALSTYLE
  5
2B
102
{ACAD_REACTORS
330
2A
102
}
330
2A
100
AcDbVisualStyle
  2
Flat
 70
     0
 71
     2
 72
     1
 73
     1
 90
        2
 40
-0.6
 41
30.0
 62
     5
 63
     7
 74
     0
 91
        4
 64
     7
 65
   257
 75
     1
175
     1
 42
1.0
 92
        8
 66
     7
 43
1.0
 76
     1
 77
     6
 78
     2
 67
     7
 79
     5
170
     0
171
     0
290
     0
174
     0
 93
       13
 44
0.0
173
     0
291
     1
 45
0.0
1001
ACAD
1000
AcDbSavedByObjectVersion
1070
     0
  0
VISUALSTYLE
  5
2C
102
{ACAD_REACTORS
330
2A
102
}
330
2A
100
AcDbVisualStyle
  2
FlatWithEdges
 70
     1
 71
     2
 72
     1
 73
     1
 90
        2
 40
-0.6
 41
30.0
 62
     5
 63
     7
 74
     1
 91
        4
 64
     7
 65
   257
 75
     1
175
     1
 42
1.0
 92
        0
 66
   257
 43
1.0
 76
     1
 77
     6
 78
     2
 67
     7
 79
     5
170
     0
171
     0
290
     0
174
     0
 93
       13
 44
0.0
173
     0
291
     1
 45
0.0
1001
ACAD
1000
AcDbSavedByObjectVersion
1070
     0
  0
VISUALSTYLE
  5
2D
102
{ACAD_REACTORS
330
2A
102
}
330
2A
100
AcDbVisualStyle
  2
Gouraud
 70
     2
 71
     2
 72
     2
 73
     1
 90
        2
 40
-0.6
 41
30.0
 62
     5
 63
     7
 74
     0
 91
        4
 64
     7
 65
   257
 75
     1
175
     1
 42
1.0
 92
        0
 66
     7
 43
1.0
 76
     1
 77
     6
 78
     2
 67
     7
 79
     5
170
     0
171
     0
290
     0
174
     0
 93
       13
 44
0.0
173
     0
291
     1
 45
0.0
1001
ACAD
1000
AcDbSavedByObjectVersion
1070
     0
  0
VISUALSTYLE
  5
2E
102
{ACAD_REACTORS
330
2A
102
}
330
2A
100
AcDbVisualStyle
  2
GouraudWithEdges
 70
     3
 71
     2
 72
     2
 73
     1
 90
        2
 40
-0.6
 41
30.0
 62
     5
 63
     7
 74
     1
 91
        4
 64
     7
 65
   257
 75
     1
175
     1
 42
1.0
 92
        0
 66
   257
 43
1.0
 76
     1
 77
     6
 78
     2
 67
     7
 79
     5
170
     0
171
     0
290
     0
174
     0
 93
       13
 44
0.0
173
     0
291
     1
 45
0.0
1001
ACAD
1000
AcDbSavedByObjectVersion
1070
     0
  0
VISUALSTYLE
  5
38
102
{ACAD_REACTORS
330
2A
102
}
330
2A
100
AcDbVisualStyle
  2
Linepattern
 70
    14
 71
     2
 72
     2
 73
     0
 90
        0
 40
-0.6
 41
-30.0
 62
     5
 63
     7
 74
     1
 91
        4
 64
     7
 65
   257
 75
     7
175
     7
 42
1.0
 92
        8
 66
     7
 43
1.0
 76
     1
 77
     6
 78
     2
 67
     7
 79
     5
170
     0
171
     0
290
     0
174
     0
 93
        1
 44
0.0
173
     0
291
     1
 45
0.0
1001
ACAD
1000
AcDbSavedByObjectVersion
1070
     0
  0
VISUALSTYLE
  5
33
102
{ACAD_REACTORS
330
2A
102
}
330
2A
100
AcDbVisualStyle
  2
Realistic
 70
     8
 71
     2
 72
     2
 73
     0
 90
        0
 40
-0.6
 41
-30.0
 62
     5
 63
     7
 74
     1
 91
        0
 64
     7
 65
   257
 75
     1
175
     1
 42
1.0
 92
        8
 66
     8
 43
1.0
 76
     1
 77
     6
 78
     2
 67
     7
 79
     5
170
     0
171
     0
290
     0
174
     0
 93
       13
 44
0.0
173
     0
291
     0
 45
0.0
1001
ACAD
1000
AcDbSavedByObjectVersion
1070
     0
  0
VISUALSTYLE
  5
37
102
{ACAD_REACTORS
330
2A
102
}
330
2A
100
AcDbVisualStyle
  2
Thicken
 70
    13
 71
     2
 72
     2
 73
     0
 90
        0
 40
-0.6
 41
-30.0
 62
     5
 63
     7
 74
     1
 91
        4
 64
     7
 65
   257
 75
     1
175
     1
 42
1.0
 92
       12
 66
     7
 43
1.0
 76
     1
 77
     6
 78
     2
 67
     7
 79
     5
170
     0
171
     0
290
     0
174
     0
 93
        1
 44
0.0
173
     0
291
     1
 45
0.0
1001
ACAD
1000
AcDbSavedByObjectVersion
1070
     0
  0
XRECORD
  5
152
102
{ACAD_REACTORS
330
149
102
}
330
149
100
AcDbXrecord
 90
        0
  0
XRECORD
  5
168
102
{ACAD_REACTORS
330
149
102
}
330
149
100
AcDbXrecord
1000
DSTYLE
1002
{
1070
   340
340
11
1002
}
  0
XRECORD
  5
153
102
{ACAD_REACTORS
330
149
102
}
330
149
100
AcDbXrecord
  1
{04C4B2B5-0512-4841-AA8D-AAFFE18B4483}
  0
XRECORD
  5
14C
102
{ACAD_REACTORS
330
149
102
}
330
149
100
AcDbXrecord
  1

  0
XRECORD
  5
151
102
{ACAD_REACTORS
330
149
102
}
330
149
100
AcDbXrecord
 90
        1
  0
XRECORD
  5
14E
102
{ACAD_REACTORS
330
149
102
}
330
149
100
AcDbXrecord
340
1A
  0
XRECORD
  5
150
102
{ACAD_REACTORS
330
149
102
}
330
149
100
AcDbXrecord
 90
    10781
  0
XRECORD
  5
14F
102
{ACAD_REACTORS
330
149
102
}
330
149
100
AcDbXrecord
340
19
  0
XRECORD
  5
155
102
{ACAD_REACTORS
330
149
102
}
330
149
100
AcDbXrecord
 40
0.0
  0
XRECORD
  5
158
102
{ACAD_REACTORS
330
149
102
}
330
149
100
AcDbXrecord
340
0
  0
XRECORD
  5
15E
102
{ACAD_REACTORS
330
149
102
}
330
149
100
AcDbXrecord
 10
0.0
 20
0.0
 30
0.0
  0
XRECORD
  5
15A
102
{ACAD_REACTORS
330
149
102
}
330
149
100
AcDbXrecord
 10
0.0
 20
0.0
 30
0.0
  0
XRECORD
  5
15D
102
{ACAD_REACTORS
330
149
102
}
330
149
100
AcDbXrecord
 10
0.0
 20
0.0
 30
0.0
  0
XRECORD
  5
15B
102
{ACAD_REACTORS
330
149
102
}
330
149
100
AcDbXrecord
 10
0.0
 20
0.0
 30
0.0
  0
XRECORD
  5
15C
102
{ACAD_REACTORS
330
149
102
}
330
149
100
AcDbXrecord
 10
0.0
 20
0.0
 30
0.0
  0
XRECORD
  5
159
102
{ACAD_REACTORS
330
149
102
}
330
149
100
AcDbXrecord
 10
0.0
 20
0.0
 30
0.0
  0
XRECORD
  5
156
102
{ACAD_REACTORS
330
149
102
}
330
149
100
AcDbXrecord
340
0
  0
XRECORD
  5
157
102
{ACAD_REACTORS
330
149
102
}
330
149
100
AcDbXrecord
 70
     0
  0
XRECORD
  5
14D
102
{ACAD_REACTORS
330
149
102
}
330
149
100
AcDbXrecord
  1

  0
XRECORD
  5
14A
102
{ACAD_REACTORS
330
149
102
}
330
149
100
AcDbXrecord
 90
        1
  0
XRECORD
  5
14B
102
{ACAD_REACTORS
330
149
102
}
330
149
100
AcDbXrecord
 90
       70
  0
XRECORD
  5
161
102
{ACAD_REACTORS
330
149
102
}
330
149
100
AcDbXrecord
340
0
  0
XRECORD
  5
167
102
{ACAD_REACTORS
330
149
102
}
330
149
100
AcDbXrecord
 10
0.0
 20
0.0
 30
0.0
  0
XRECORD
  5
163
102
{ACAD_REACTORS
330
149
102
}
330
149
100
AcDbXrecord
 10
0.0
 20
0.0
 30
0.0
  0
XRECORD
  5
166
102
{ACAD_REACTORS
330
149
102
}
330
149
100
AcDbXrecord
 10
0.0
 20
0.0
 30
0.0
  0
XRECORD
  5
164
102
{ACAD_REACTORS
330
149
102
}
330
149
100
AcDbXrecord
 10
0.0
 20
0.0
 30
0.0
  0
XRECORD
  5
165
102
{ACAD_REACTORS
330
149
102
}
330
149
100
AcDbXrecord
 10
0.0
 20
0.0
 30
0.0
  0
XRECORD
  5
162
102
{ACAD_REACTORS
330
149
102
}
330
149
100
AcDbXrecord
 10
0.0
 20
0.0
 30
0.0
  0
XRECORD
  5
15F
102
{ACAD_REACTORS
330
149
102
}
330
149
100
AcDbXrecord
340
0
  0
XRECORD
  5
160
102
{ACAD_REACTORS
330
149
102
}
330
149
100
AcDbXrecord
 70
     0
  0
XRECORD
  5
154
102
{ACAD_REACTORS
330
149
102
}
330
149
100
AcDbXrecord
  1
{FAEB1C32-E019-11D5-929B-00C0DF256EC4}
  0
ENDSEC
  0
EOF
