  0
SECTION
  2
HEADER
  9
$ACADVER
  1
AC1009
  9
$DWGCODEPAGE
  3
ansi_1252
  9
$INSBASE
 10
0.0
 20
0.0
 30
0.0
  9
$EXTMIN
 10
-6.916899981222222
 20
-5.437500476837158
 30
-1.0
  9
$EXTMAX
 10
6.334928548199981
 20
5.79127311706543
 30
1.206063040733337
  9
$LIMMIN
 10
0.0
 20
0.0
  9
$LIMMAX
 10
12.0
 20
9.0
  9
$ORTHOMODE
 70
     0
  9
$REGENMODE
 70
     1
  9
$FILLMODE
 70
     1
  9
$QTEXTMODE
 70
     0
  9
$MIRRTEXT
 70
     1
  9
$DRAGMODE
 70
     2
  9
$LTSCALE
 40
1.0
  9
$OSMODE
 70
    37
  9
$ATTMODE
 70
     1
  9
$TEXTSIZE
 40
0.2
  9
$TRACEWID
 40
0.05
  9
$TEXTSTYLE
  7
STANDARD
  9
$CLAYER
  8
0
  9
$CELTYPE
  6
BYLAYER
  9
$CECOLOR
 62
   256
  9
$DIMSCALE
 40
1.0
  9
$DIMASZ
 40
0.18
  9
$DIMEXO
 40
0.0625
  9
$DIMDLI
 40
0.38
  9
$DIMRND
 40
0.0
  9
$DIMDLE
 40
0.0
  9
$DIMEXE
 40
0.18
  9
$DIMTP
 40
0.0
  9
$DIMTM
 40
0.0
  9
$DIMTXT
 40
0.18
  9
$DIMCEN
 40
0.09
  9
$DIMTSZ
 40
0.0
  9
$DIMTOL
 70
     0
  9
$DIMLIM
 70
     0
  9
$DIMTIH
 70
     1
  9
$DIMTOH
 70
     1
  9
$DIMSE1
 70
     0
  9
$DIMSE2
 70
     0
  9
$DIMTAD
 70
     0
  9
$DIMZIN
 70
     0
  9
$DIMBLK
  1

  9
$DIMASO
 70
     1
  9
$DIMSHO
 70
     1
  9
$DIMPOST
  1

  9
$DIMAPOST
  1

  9
$DIMALT
 70
     0
  9
$DIMALTD
 70
     2
  9
$DIMALTF
 40
25.4
  9
$DIMLFAC
 40
1.0
  9
$DIMTOFL
 70
     0
  9
$DIMTVP
 40
0.0
  9
$DIMTIX
 70
     0
  9
$DIMSOXD
 70
     0
  9
$DIMSAH
 70
     0
  9
$DIMBLK1
  1

  9
$DIMBLK2
  1

  9
$DIMSTYLE
  2
STANDARD
  9
$DIMCLRD
 70
     0
  9
$DIMCLRE
 70
     0
  9
$DIMCLRT
 70
     0
  9
$DIMTFAC
 40
1.0
  9
$DIMGAP
 40
0.09
  9
$LUNITS
 70
     2
  9
$LUPREC
 70
     4
  9
$SKETCHINC
 40
0.1
  9
$FILLETRAD
 40
0.5
  9
$AUNITS
 70
     0
  9
$AUPREC
 70
     0
  9
$MENU
  1
.
  9
$ELEVATION
 40
0.0
  9
$PELEVATION
 40
0.0
  9
$THICKNESS
 40
0.0
  9
$LIMCHECK
 70
     0
  9
$CHAMFERA
 40
0.5
  9
$CHAMFERB
 40
0.5
  9
$SKPOLY
 70
     0
  9
$TDCREATE
 40
2305814.299270833
  9
$TDUPDATE
 40
2305814.299270845
  9
$TDINDWG
 40
0.0000000116
  9
$TDUSRTIMER
 40
0.0000000116
  9
$USRTIMER
 70
     1
  9
$ANGBASE
 50
0.0
  9
$ANGDIR
 70
     0
  9
$PDMODE
 70
     0
  9
$PDSIZE
 40
0.0
  9
$PLINEWID
 40
0.0
  9
$COORDS
 70
     1
  9
$SPLFRAME
 70
     0
  9
$SPLINETYPE
 70
     6
  9
$SPLINESEGS
 70
     8
  9
$ATTDIA
 70
     0
  9
$ATTREQ
 70
     1
  9
$HANDLING
 70
     1
  9
$HANDSEED
  5
E4
  9
$SURFTAB1
 70
     6
  9
$SURFTAB2
 70
     6
  9
$SURFTYPE
 70
     6
  9
$SURFU
 70
     6
  9
$SURFV
 70
     6
  9
$UCSNAME
  2

  9
$UCSORG
 10
0.0
 20
0.0
 30
0.0
  9
$UCSXDIR
 10
1.0
 20
0.0
 30
0.0
  9
$UCSYDIR
 10
0.0
 20
1.0
 30
0.0
  9
$PUCSNAME
  2

  9
$PUCSORG
 10
0.0
 20
0.0
 30
0.0
  9
$PUCSXDIR
 10
1.0
 20
0.0
 30
0.0
  9
$PUCSYDIR
 10
0.0
 20
1.0
 30
0.0
  9
$USERI1
 70
     0
  9
$USERI2
 70
     0
  9
$USERI3
 70
     0
  9
$USERI4
 70
     0
  9
$USERI5
 70
     0
  9
$USERR1
 40
0.0
  9
$USERR2
 40
0.0
  9
$USERR3
 40
0.0
  9
$USERR4
 40
0.0
  9
$USERR5
 40
0.0
  9
$WORLDVIEW
 70
     1
  9
$SHADEDGE
 70
     3
  9
$SHADEDIF
 70
    70
  9
$TILEMODE
 70
     1
  9
$MAXACTVP
 70
    64
  9
$PLIMCHECK
 70
     0
  9
$PEXTMIN
 10
1.000000000000000E+20
 20
1.000000000000000E+20
 30
1.000000000000000E+20
  9
$PEXTMAX
 10
-1.000000000000000E+20
 20
-1.000000000000000E+20
 30
-1.000000000000000E+20
  9
$PLIMMIN
 10
0.0
 20
0.0
  9
$PLIMMAX
 10
12.0
 20
9.0
  9
$UNITMODE
 70
     0
  9
$VISRETAIN
 70
     1
  9
$PLINEGEN
 70
     0
  9
$PSLTSCALE
 70
     1
  0
ENDSEC
  0
SECTION
  2
TABLES
  0
TABLE
  2
VPORT
 70
     1
  0
VPORT
  2
*ACTIVE
 70
     0
 10
0.0
 20
0.0
 11
1.0
 21
1.0
 12
0.0
 22
0.0
 13
0.0
 23
0.0
 14
0.5
 24
0.5
 15
0.5
 25
0.5
 16
0.0
 26
0.0
 36
1.0
 17
3.625275259742853
 27
0.1768863689858238
 37
0.0
 40
11.45334881941908
 41
1.897232747081551
 42
50.0
 43
0.0
 44
0.0
 50
0.0
 51
0.0
 71
     0
 72
   100
 73
     1
 74
     3
 75
     0
 76
     0
 77
     0
 78
     0
  0
ENDTAB
  0
TABLE
  2
LTYPE
 70
    21
  0
LTYPE
  2
CONTINUOUS
 70
     0
  3
Solid line
 72
    65
 73
     0
 40
0.0
  0
LTYPE
  2
BORDER
 70
     0
  3
__ __ . __ __ . __ 
 72
    65
 73
     6
 40
0.875
 49
0.25
 49
-0.125
 49
0.25
 49
-0.125
 49
0.0
 49
-0.125
  0
LTYPE
  2
CENTER
 70
     0
  3
___ _ ___ _ ___ _ _
 72
    65
 73
     4
 40
1.125
 49
0.75
 49
-0.125
 49
0.125
 49
-0.125
  0
LTYPE
  2
DASHDOT
 70
     0
  3
_._._._._._._._._._
 72
    65
 73
     4
 40
0.5
 49
0.25
 49
-0.125
 49
0.0
 49
-0.125
  0
LTYPE
  2
DASHED
 70
     0
  3
_ _ _ _ _ _ _ _ _ _
 72
    65
 73
     2
 40
0.375
 49
0.25
 49
-0.125
  0
LTYPE
  2
DIVIDE
 70
     0
  3
__..__..__..__..__.
 72
    65
 73
     6
 40
0.625
 49
0.25
 49
-0.125
 49
0.0
 49
-0.125
 49
0.0
 49
-0.125
  0
LTYPE
  2
DOT
 70
     0
  3
...................
 72
    65
 73
     2
 40
0.125
 49
0.0
 49
-0.125
  0
LTYPE
  2
HIDDEN
 70
     0
  3
__ __ __ __ __ __ _
 72
    65
 73
     2
 40
0.1875
 49
0.125
 49
-0.0625
  0
LTYPE
  2
PHANTOM
 70
     0
  3
___ _ _ ___ _ _ ___
 72
    65
 73
     6
 40
1.25
 49
0.625
 49
-0.125
 49
0.125
 49
-0.125
 49
0.125
 49
-0.125
  0
LTYPE
  2
CUTTING
 70
     0
  3
________ _ _ ______
 72
    65
 73
     6
 40
1.4675
 49
1.0
 49
-0.0725
 49
0.125
 49
-0.0725
 49
0.125
 49
-0.0725
  0
LTYPE
  2
STITCH
 70
     0
  3
_ _ _ _ _ _ _ _ _ _
 72
    65
 73
     2
 40
0.145
 49
0.0725
 49
-0.0725
  0
LTYPE
  2
DOTTED
 70
     0
  3
Dotted
 72
    65
 73
     2
 40
0.125
 49
0.0
 49
-0.125
  0
LTYPE
  2
CENTER36
 70
     0
  3
Center
 72
    65
 73
     4
 40
0.7699999958000001
 49
0.5
 49
-0.0724999979
 49
0.125
 49
-0.0724999979
  0
LTYPE
  2
DASHED37
 70
     0
  3
Dashed
 72
    65
 73
     2
 40
0.375
 49
0.25
 49
-0.125
  0
LTYPE
  2
HIDDEN38
 70
     0
  3
Hidden
 72
    65
 73
     2
 40
0.1974999979
 49
0.125
 49
-0.0724999979
  0
LTYPE
  2
PHANTOM39
 70
     0
  3
Phantom
 72
    65
 73
     6
 40
0.9674999937000002
 49
0.5
 49
-0.0724999979
 49
0.125
 49
-0.0724999979
 49
0.125
 49
-0.0724999979
  0
LTYPE
  2
DASHDOT40
 70
     0
  3
Dashdot
 72
    65
 73
     4
 40
0.6762499958000001
 49
0.5
 49
-0.0724999979
 49
0.03125
 49
-0.0724999979
  0
LTYPE
  2
BORDER41
 70
     0
  3
Border
 72
    65
 73
     6
 40
1.2487499937
 49
0.5
 49
-0.0724999979
 49
0.5
 49
-0.0724999979
 49
0.03125
 49
-0.0724999979
  0
LTYPE
  2
DIVIDE42
 70
     0
  3
Divide
 72
    65
 73
     6
 40
0.7799999937000002
 49
0.5
 49
-0.0724999979
 49
0.03125
 49
-0.0724999979
 49
0.03125
 49
-0.0724999979
  0
LTYPE
  2
CUTTING43
 70
     0
  3
Cutting
 72
    65
 73
     6
 40
1.4674999937
 49
1.0
 49
-0.0724999979
 49
0.125
 49
-0.0724999979
 49
0.125
 49
-0.0724999979
  0
LTYPE
  2
STITCH44
 70
     0
  3
Stitch
 72
    65
 73
     2
 40
0.1449999958
 49
0.0724999979
 49
-0.0724999979
  0
ENDTAB
  0
TABLE
  2
LAYER
 70
     3
  0
LAYER
  2
0
 70
     0
 62
     7
  6
CONTINUOUS
  0
LAYER
  2
DXF_US-1210_V2
 70
     0
 62
     7
  6
CONTINUOUS
  0
LAYER
  2
DEFPOINTS
 70
     0
 62
     7
  6
CONTINUOUS
  0
ENDTAB
  0
TABLE
  2
STYLE
 70
     7
  0
STYLE
  2
STANDARD
 70
     0
 40
0.0
 41
1.0
 50
0.0
 71
     0
 42
0.2
  3
txt
  4

  0
STYLE
  2
TEXT31
 70
     0
 40
0.2
 41
1.0
 50
0.0
 71
     0
 42
0.2
  3

  4

  0
STYLE
  2
TEXT45
 70
     0
 40
0.2
 41
1.0
 50
0.0
 71
     0
 42
0.2
  3

  4

  0
STYLE
  2
TEXT63
 70
     0
 40
0.2
 41
1.0
 50
0.0
 71
     0
 42
0.2
  3

  4

  0
STYLE
  2
TEXT87
 70
     0
 40
0.2
 41
1.0
 50
0.0
 71
     0
 42
0.2
  3

  4

  0
STYLE
  2
TEXT88
 70
     0
 40
0.2
 41
1.0
 50
0.0
 71
     0
 42
0.2
  3

  4

  0
STYLE
  2
TEXT93
 70
     0
 40
0.2
 41
1.0
 50
0.0
 71
     0
 42
0.2
  3

  4

  0
ENDTAB
  0
TABLE
  2
VIEW
 70
     0
  0
ENDTAB
  0
TABLE
  2
UCS
 70
     0
  0
ENDTAB
  0
TABLE
  2
APPID
 70
     2
  0
APPID
  2
ACAD
 70
     0
  0
APPID
  2
PUNCH__SOFTWARE_VIACAD
 70
     0
  0
ENDTAB
  0
TABLE
  2
DIMSTYLE
 70
     4
  0
DIMSTYLE
  2
STANDARD
 70
     0
  3

  4

  5

  6

  7

 40
1.0
 41
0.18
 42
0.0625
 43
0.38
 44
0.18
 45
0.0
 46
0.0
 47
0.0
 48
0.0
140
0.18
141
0.09
142
0.0
143
25.4
144
1.0
145
0.0
146
1.0
147
0.09
 71
     0
 72
     0
 73
     1
 74
     1
 75
     0
 76
     0
 77
     0
 78
     0
170
     0
171
     2
172
     0
173
     0
174
     0
175
     0
176
     0
177
     0
178
     0
  0
DIMSTYLE
  2
ROTATEDDIM15
 70
     0
  3

  4

  5

  6

  7

 40
1.0
 41
0.25
 42
0.0625
 43
0.38
 44
0.18
 45
0.0
 46
0.0
 47
0.0
 48
0.0
140
0.125
141
0.09
142
0.0
143
25.4
144
1.0
145
0.0
146
1.0
147
0.09
 71
     0
 72
     0
 73
     1
 74
     1
 75
     0
 76
     0
 77
     0
 78
     0
170
     0
171
     2
172
     0
173
     0
174
     0
175
     0
176
     0
177
     0
178
     0
  0
DIMSTYLE
  2
ROTATEDDIM16
 70
     0
  3

  4

  5

  6

  7

 40
1.0
 41
0.25
 42
0.0625
 43
0.38
 44
0.18
 45
0.0
 46
0.0
 47
0.0
 48
0.0
140
0.125
141
0.09
142
0.0
143
25.4
144
1.0
145
0.0
146
1.0
147
0.09
 71
     0
 72
     0
 73
     1
 74
     1
 75
     0
 76
     0
 77
     0
 78
     0
170
     0
171
     2
172
     0
173
     0
174
     0
175
     0
176
     0
177
     0
178
     0
  0
DIMSTYLE
  2
ROTATEDDIM17
 70
     0
  3

  4

  5

  6

  7

 40
1.0
 41
0.25
 42
0.0625
 43
0.38
 44
0.18
 45
0.0
 46
0.0
 47
0.0
 48
0.0
140
0.125
141
0.09
142
0.0
143
25.4
144
1.0
145
0.0
146
1.0
147
0.09
 71
     0
 72
     0
 73
     1
 74
     1
 75
     0
 76
     0
 77
     0
 78
     0
170
     0
171
     2
172
     0
173
     0
174
     0
175
     0
176
     0
177
     0
178
     0
  0
ENDTAB
  0
ENDSEC
  0
SECTION
  2
BLOCKS
  0
BLOCK
  8
0
  2
$MODEL_SPACE
 70
     0
 10
0.0
 20
0.0
 30
0.0
  3
$MODEL_SPACE
  1

  0
ENDBLK
  5
21
  8
0
  0
BLOCK
 67
     1
  8
0
  2
$PAPER_SPACE
 70
     0
 10
0.0
 20
0.0
 30
0.0
  3
$PAPER_SPACE
  1

  0
ENDBLK
  5
1D
 67
     1
  8
0
  0
BLOCK
  8
0
  2
*D1
 70
     1
 10
0.0
 20
0.0
 30
0.0
  3
*D1
  1

  0
LINE
  5
72
  8
DXF_US-1210_V2
 62
     0
 10
-1.460530599
 20
-0.7955729167
 30
0.0
 11
-1.460530599
 21
-1.0637539941
 31
0.0
  0
LINE
  5
73
  8
DXF_US-1210_V2
 62
     0
 10
-1.3353889101
 20
-0.7955729167
 30
0.0
 11
-1.3353889101
 21
-1.0637539941
 31
0.0
  0
LINE
  5
74
  8
DXF_US-1210_V2
 62
     0
 10
-1.710530599
 20
-0.8837539941
 30
0.0
 11
-1.960530599
 21
-0.8837539941
 31
0.0
  0
LINE
  5
75
  8
DXF_US-1210_V2
 62
     0
 10
-1.0853889101
 20
-0.8837539941
 30
0.0
 11
-0.8353889101
 21
-0.8837539941
 31
0.0
  0
SOLID
  5
76
  8
DXF_US-1210_V2
 62
     0
 10
-1.710530599
 20
-0.9254206607666666
 30
0.0
 11
-1.710530599
 21
-0.8420873274333334
 31
0.0
 12
-1.460530599
 22
-0.8837539941
 32
0.0
 13
-1.460530599
 23
-0.8837539941
 33
0.0
  0
SOLID
  5
77
  8
DXF_US-1210_V2
 62
     0
 10
-1.0853889101
 20
-0.8420873274333334
 30
0.0
 11
-1.0853889101
 21
-0.9254206607666666
 31
0.0
 12
-1.3353889101
 22
-0.8837539941
 32
0.0
 13
-1.3353889101
 23
-0.8837539941
 33
0.0
  0
TEXT
  5
78
  8
DXF_US-1210_V2
 62
     0
 10
-0.763246052957143
 20
-0.9462539941
 30
0.0
 40
0.125
  1
0.125
  0
POINT
  5
79
  8
DEFPOINTS
 62
     0
 10
-1.460530599
 20
-0.7330729167
 30
0.0
  0
POINT
  5
7A
  8
DEFPOINTS
 62
     0
 10
-1.3353889101
 20
-0.7330729167
 30
0.0
  0
POINT
  5
7B
  8
DEFPOINTS
 62
     0
 10
-1.3353889101
 20
-0.8837539941
 30
0.0
  0
ENDBLK
  5
7D
  8
0
  0
BLOCK
  8
0
  2
*D2
 70
     1
 10
0.0
 20
0.0
 30
0.0
  3
*D2
  1

  0
LINE
  5
AE
  8
DXF_US-1210_V2
 62
     0
 10
-5.790072066199982
 20
2.937500045171648
 30
0.0
 11
-5.790072066199981
 21
5.791273045171648
 31
0.0
  0
LINE
  5
AF
  8
DXF_US-1210_V2
 62
     0
 10
6.3345
 20
2.9375
 30
0.0
 11
6.3345
 21
5.791273045171648
 31
0.0
  0
LINE
  5
B0
  8
DXF_US-1210_V2
 62
     0
 10
-5.540072066199981
 20
5.611273045171648
 30
0.0
 11
-0.1183812711952292
 21
5.611273045171648
 31
0.0
  0
LINE
  5
B1
  8
DXF_US-1210_V2
 62
     0
 10
6.0845
 20
5.611273045171648
 30
0.0
 11
0.6628092049952468
 21
5.611273045171648
 31
0.0
  0
SOLID
  5
B2
  8
DXF_US-1210_V2
 62
     0
 10
-5.540072066199981
 20
5.652939711838315
 30
0.0
 11
-5.540072066199981
 21
5.569606378504981
 31
0.0
 12
-5.790072066199981
 22
5.611273045171648
 32
0.0
 13
-5.790072066199981
 23
5.611273045171648
 33
0.0
  0
SOLID
  5
B3
  8
DXF_US-1210_V2
 62
     0
 10
6.0845
 20
5.569606378504981
 30
0.0
 11
6.0845
 21
5.652939711838315
 31
0.0
 12
6.3345
 22
5.611273045171648
 32
0.0
 13
6.3345
 23
5.611273045171648
 33
0.0
  0
TEXT
  5
B4
  8
DXF_US-1210_V2
 62
     0
 10
-0.0640955569095141
 20
5.548773045171648
 30
0.0
 40
0.125
  1
12.125
  0
POINT
  5
B5
  8
DEFPOINTS
 62
     0
 10
-5.790072066199982
 20
2.875000045171648
 30
0.0
  0
POINT
  5
B6
  8
DEFPOINTS
 62
     0
 10
6.3345
 20
2.875
 30
0.0
  0
POINT
  5
B7
  8
DEFPOINTS
 62
     0
 10
6.3345
 20
5.611273045171648
 30
0.0
  0
ENDBLK
  5
B9
  8
0
  0
BLOCK
  8
0
  2
*D3
 70
     1
 10
0.0
 20
0.0
 30
0.0
  3
*D3
  1

  0
LINE
  5
C1
  8
DXF_US-1210_V2
 62
     0
 10
-4.040071759
 20
4.6875
 30
0.0
 11
-6.905927758999999
 21
4.6875
 31
0.0
  0
LINE
  5
C2
  8
DXF_US-1210_V2
 62
     0
 10
-4.040071759
 20
-5.4375
 30
0.0
 11
-6.905927759
 21
-5.4375
 31
0.0
  0
LINE
  5
C3
  8
DXF_US-1210_V2
 62
     0
 10
-6.725927758999999
 20
4.4375
 30
0.0
 11
-6.725927758999999
 21
-0.2225000000000001
 31
0.0
  0
LINE
  5
C4
  8
DXF_US-1210_V2
 62
     0
 10
-6.725927759
 20
-5.1875
 30
0.0
 11
-6.725927759
 21
-0.5274999999999999
 31
0.0
  0
SOLID
  5
C5
  8
DXF_US-1210_V2
 62
     0
 10
-6.684261092333332
 20
4.4375
 30
0.0
 11
-6.767594425666666
 21
4.4375
 31
0.0
 12
-6.725927758999999
 22
4.6875
 32
0.0
 13
-6.725927758999999
 23
4.6875
 33
0.0
  0
SOLID
  5
C6
  8
DXF_US-1210_V2
 62
     0
 10
-6.767594425666667
 20
-5.1875
 30
0.0
 11
-6.684261092333333
 21
-5.1875
 31
0.0
 12
-6.725927759
 22
-5.4375
 32
0.0
 13
-6.725927759
 23
-5.4375
 33
0.0
  0
TEXT
  5
C7
  8
DXF_US-1210_V2
 62
     0
 10
-7.062237282809523
 20
-0.4375
 30
0.0
 40
0.125
  1
10.125
  0
POINT
  5
C8
  8
DEFPOINTS
 62
     0
 10
-3.977571759
 20
4.6875
 30
0.0
  0
POINT
  5
C9
  8
DEFPOINTS
 62
     0
 10
-3.977571759
 20
-5.4375
 30
0.0
  0
POINT
  5
CA
  8
DEFPOINTS
 62
     0
 10
-6.725927759
 20
-5.4375
 30
0.0
  0
ENDBLK
  5
CC
  8
0
  0
ENDSEC
  0
SECTION
  2
ENTITIES
  0
POINT
  5
52
  8
DXF_US-1210_V2
 62
    18
 10
-0.3856372421
 20
-1.2080729167
 30
0.0
  0
ARC
  5
53
  8
DXF_US-1210_V2
 62
    18
 10
-3.977572066199999
 20
-3.6250003072
 30
0.0
 40
1.812500000000001
 50
179.9999917223574
 51
270.0000082830999
  0
ARC
  5
54
  8
DXF_US-1210_V2
 62
    18
 10
-3.977572066199999
 20
2.875000307199999
 30
0.0
 40
1.812500000000002
 50
89.99999171690004
 51
179.9999917223574
  0
LINE
  5
55
  8
DXF_US-1210_V2
 62
    18
 10
0.3922310683
 20
-0.9205729167
 30
0.0
 11
0.3922310683
 21
-1.2080729167
 31
0.0
  0
ARC
  5
56
  8
DXF_US-1210_V2
 62
    18
 10
0.2047310683
 20
-0.9205729167
 30
0.0
 40
0.1875
 50
0.0
 51
90.0
  0
LINE
  5
57
  8
DXF_US-1210_V2
 62
    18
 10
0.1142310683
 20
-1.2080729167
 30
0.0
 11
0.3922310683
 21
-0.9300729167
 31
0.0
  0
LINE
  5
58
  8
DXF_US-1210_V2
 62
     1
 10
2.539469401
 20
-0.7330729167
 30
0.0
 11
2.539469401
 21
-0.3911140932
 31
0.0
  0
LINE
  5
59
  8
DXF_US-1210_V2
 62
     1
 10
2.6291496342
 20
-0.2362319383
 30
0.0
 11
2.539469401
 21
-0.3911140932
 31
0.0
  0
LINE
  5
5A
  8
DXF_US-1210_V2
 62
    18
 10
0.2812310683
 20
-1.2080729167
 30
0.0
 11
0.3922310683
 21
-1.0970729167
 31
0.0
  0
LINE
  5
5B
  8
DXF_US-1210_V2
 62
     1
 10
2.539469401
 20
-1.3101154461
 30
0.0
 11
2.539469401
 21
-0.7330729167
 31
0.0
  0
ARC
  5
5C
  8
DXF_US-1210_V2
 62
    18
 10
4.522428548200002
 20
-3.625000307200003
 30
0.0
 40
1.812499999999999
 50
269.9999917169
 51
0.0000082776426155
  0
LINE
  5
5D
  8
DXF_US-1210_V2
 62
     1
 10
2.539469401
 20
0.1341384321
 30
0.0
 11
2.539469401
 21
0.5169270833
 31
0.0
  0
TEXT
  5
5F
  8
DXF_US-1210_V2
 62
     5
 10
1.1792819023
 20
1.8093078107
 30
0.0
 40
0.125
  1
COUNTERTOP
  7
TEXT31
  0
LINE
  5
60
  8
DXF_US-1210_V2
 62
     5
 10
0.2037430621
 20
0.5169270833
 30
0.0
 11
0.8993031063
 21
1.7167352334
 31
0.0
  0
LINE
  5
61
  8
DXF_US-1210_V2
 62
     5
 10
0.8993031063
 20
1.7167352334
 30
0.0
 11
1.1292871629
 21
1.7167352334
 31
0.0
  0
ARC
  5
62
  8
DXF_US-1210_V2
 62
    18
 10
4.522428548200001
 20
2.875000307200001
 30
0.0
 40
1.8125
 50
0.000008321556147
 51
90.00002484384265
  0
LINE
  5
63
  8
DXF_US-1210_V2
 62
    18
 10
-0.7197034472
 20
-1.2080729167
 30
0.0
 11
-0.2447034472
 21
-0.7330729167
 31
0.0
  0
LINE
  5
64
  8
DXF_US-1210_V2
 62
    18
 10
-0.5526703446
 20
-1.2080729167
 30
0.0
 11
-0.0776703446
 21
-0.7330729167
 31
0.0
  0
LINE
  5
65
  8
DXF_US-1210_V2
 62
    18
 10
-0.8778201775
 20
-1.2086843389
 30
0.0
 11
-0.4022087552
 21
-0.7330729167
 31
0.0
  0
LINE
  5
66
  8
DXF_US-1210_V2
 62
    18
 10
-1.3601577062
 20
-1.0133616629
 30
0.0
 11
-1.07986896
 21
-0.7330729167
 31
0.0
  0
LINE
  5
67
  8
DXF_US-1210_V2
 62
    18
 10
-1.5210556084
 20
-2.8445905907
 30
0.0
 11
-1.2078583044
 21
-2.5313932867
 31
0.0
  0
LINE
  5
68
  8
DXF_US-1210_V2
 62
    18
 10
-1.5371453987
 20
-3.0277134835
 30
0.0
 11
-1.2239480946
 21
-2.7145161794
 31
0.0
  0
LINE
  5
69
  8
DXF_US-1210_V2
 62
    18
 10
-1.5402000935
 20
-3.0624802031
 30
0.0
 11
-1.3353889101
 21
-0.7330729167
 31
0.0
  0
LINE
  5
6A
  8
DXF_US-1210_V2
 62
     1
 10
-1.5402369926
 20
-3.0628998735
 30
0.0
 11
-1.3722682426
 21
-3.1390717485
 31
0.0
  0
LINE
  5
6B
  8
DXF_US-1210_V2
 62
    18
 10
-1.3478327001
 20
-3.17246699
 30
0.0
 11
-1.256127675
 21
-3.080761965
 31
0.0
  0
TEXT
  5
6D
  8
DXF_US-1210_V2
 62
     5
 10
-3.3207180977
 20
-2.0406921893
 30
0.0
 40
0.125
  1
SINK
  7
TEXT45
  0
DIMENSION
  5
6F
  8
DXF_US-1210_V2
 62
     5
  2
*D1
 10
-1.3353889101
 20
-0.8837539941
 30
0.0
 11
-0.4953889101000001
 21
-0.8837539941
 31
0.0
 70
    32
  3
ROTATEDDIM15
 13
-1.460530599
 23
-0.7330729167
 33
0.0
 14
-1.3353889101
 24
-0.7330729167
 34
0.0
  0
LINE
  5
7E
  8
DXF_US-1210_V2
 62
     5
 10
-1.468928806
 20
-2.251319285
 30
0.0
 11
-2.8836770843
 21
-2.1270147666
 31
0.0
  0
LINE
  5
7F
  8
DXF_US-1210_V2
 62
     1
 10
-1.3722682426
 20
-3.1390717485
 30
0.0
 11
-1.2817872318
 21
-3.26272913
 31
0.0
  0
LINE
  5
80
  8
DXF_US-1210_V2
 62
     1
 10
-1.2817872318
 20
-3.26272913
 30
0.0
 11
-1.2550807426
 21
-3.2992279985
 31
0.0
  0
LINE
  5
81
  8
DXF_US-1210_V2
 62
    18
 10
-1.4566964476
 20
-2.1120990196
 30
0.0
 11
-1.1434991435
 21
-1.7989017155
 31
0.0
  0
LINE
  5
82
  8
DXF_US-1210_V2
 62
    18
 10
-1.4727862378
 20
-2.2952219124
 30
0.0
 11
-1.1595889337
 21
-1.9820246083
 31
0.0
  0
LINE
  5
83
  8
DXF_US-1210_V2
 62
    18
 10
-1.4473994377
 20
-3.1050006251
 30
0.0
 11
-1.2400378848
 21
-2.8976390722
 31
0.0
  0
LINE
  5
84
  8
DXF_US-1210_V2
 62
    18
 10
-1.4245168671
 20
-1.745853234
 30
0.0
 11
-1.1118444712
 21
-1.4386300724
 31
0.0
  0
LINE
  5
85
  8
DXF_US-1210_V2
 62
    18
 10
-1.488876028
 20
-2.4783448051
 30
0.0
 11
-1.1756787239
 21
-2.1651475011
 31
0.0
  0
LINE
  5
86
  8
DXF_US-1210_V2
 62
     1
 10
-1.2550807426
 20
-3.2992279985
 30
0.0
 11
-1.0640520571
 21
-3.3911014642
 31
0.0
  0
LINE
  5
87
  8
DXF_US-1210_V2
 62
     1
 10
-1.7082057426
 20
-2.9867279985
 30
0.0
 11
-1.5402369926
 21
-3.0628998735
 31
0.0
  0
LINE
  5
88
  8
DXF_US-1210_V2
 62
    18
 10
-1.3923372867
 20
-1.3796074484
 30
0.0
 11
-0.7458027549
 21
-0.7330729167
 31
0.0
  0
ARC
  5
89
  8
DXF_US-1210_V2
 62
    18
 10
-0.8602574086999999
 20
-1.460619084
 30
0.0
 40
0.2525461674000002
 50
90.0
 51
175.0049731570999
  0
LINE
  5
8A
  8
DXF_US-1210_V2
 62
    18
 10
-1.273330212
 20
-3.276549373
 30
0.0
 11
-1.1118444712
 21
-1.4386300724
 31
0.0
  0
LINE
  5
8B
  8
DXF_US-1210_V2
 62
    18
 10
-1.3762474965
 20
-1.1964845557
 30
0.0
 11
-0.9128358575
 21
-0.7330729167
 31
0.0
  0
TEXT
  5
8D
  8
DXF_US-1210_V2
 62
    18
 10
-3.6753074358
 20
-4.2625278237
 30
0.0
 40
0.125
  1
NOTE: THIS TEMPLATE IS FOR THE TYPE OF INSTALLATION SHOWN ABOVE.\PCOUNTERTOP WILL OVERHANG SINK BOWLS BY APPROXIMATELY 1/8".\PCHECK DIMENSIONS FOR PROPER FIT.
  7
TEXT63
  0
LINE
  5
8E
  8
DXF_US-1210_V2
 62
     3
 10
-1.460530599
 20
-0.7330729167
 30
0.0
 11
2.539469401
 21
-0.7330729167
 31
0.0
  0
LINE
  5
8F
  8
DXF_US-1210_V2
 62
    18
 10
-1.3354258093
 20
-0.7330729167
 30
-1.0
 11
0.2047311255
 21
-0.7330729167
 31
-1.0
  0
LINE
  5
90
  8
DXF_US-1210_V2
 62
    18
 10
-1.3354258093
 20
-0.7330729167
 30
-1.0
 11
0.2047310683
 21
-0.7326532462
 31
-1.0
  0
LINE
  5
91
  8
DXF_US-1210_V2
 62
    18
 10
-0.8602574087
 20
-1.2080729167
 30
0.0
 11
0.3922310683
 21
-1.2080729167
 31
0.0
  0
LINE
  5
92
  8
DXF_US-1210_V2
 62
     3
 10
2.298889935
 20
0.5169270833
 30
0.0
 11
2.539469401
 21
0.2763476173
 31
0.0
  0
LINE
  5
93
  8
DXF_US-1210_V2
 62
     3
 10
1.9648237299
 20
0.5169270833
 30
0.0
 11
2.4623902833
 21
0.01936053
 31
0.0
  0
LINE
  5
94
  8
DXF_US-1210_V2
 62
     3
 10
1.6307575248
 20
0.5169270833
 30
0.0
 11
2.539469401
 21
-0.3917847929
 31
0.0
  0
LINE
  5
95
  8
DXF_US-1210_V2
 62
     3
 10
1.2966913196
 20
0.5169270833
 30
0.0
 11
2.539469401
 21
-0.7258509981
 31
0.0
  0
LINE
  5
96
  8
DXF_US-1210_V2
 62
     3
 10
0.9626251145
 20
0.5169270833
 30
0.0
 11
2.2126251145
 21
-0.7330729167
 31
0.0
  0
LINE
  5
97
  8
DXF_US-1210_V2
 62
     3
 10
0.6285589094
 20
0.5169270833
 30
0.0
 11
1.8785589094
 21
-0.7330729167
 31
0.0
  0
LINE
  5
98
  8
DXF_US-1210_V2
 62
     3
 10
0.2944927043
 20
0.5169270833
 30
0.0
 11
1.5444927043
 21
-0.7330729167
 31
0.0
  0
LINE
  5
99
  8
DXF_US-1210_V2
 62
     3
 10
-0.0395735009
 20
0.5169270833
 30
0.0
 11
1.2104264991
 21
-0.7330729167
 31
0.0
  0
LINE
  5
9A
  8
DXF_US-1210_V2
 62
     3
 10
-0.373639706
 20
0.5169270833
 30
0.0
 11
0.876360294
 21
-0.7330729167
 31
0.0
  0
LINE
  5
9B
  8
DXF_US-1210_V2
 62
     3
 10
-0.7077059111
 20
0.5169270833
 30
0.0
 11
0.5422940889
 21
-0.7330729167
 31
0.0
  0
LINE
  5
9C
  8
DXF_US-1210_V2
 62
     3
 10
-1.0417721163
 20
0.5169270833
 30
0.0
 11
0.2082278837
 21
-0.7330729167
 31
0.0
  0
LINE
  5
9D
  8
DXF_US-1210_V2
 62
     3
 10
-1.3758383214
 20
0.5169270833
 30
0.0
 11
-0.1258383214
 21
-0.7330729167
 31
0.0
  0
LINE
  5
9E
  8
DXF_US-1210_V2
 62
     3
 10
-1.460530599
 20
0.2675531558
 30
0.0
 11
-0.4599045265
 21
-0.7330729167
 31
0.0
  0
LINE
  5
9F
  8
DXF_US-1210_V2
 62
     3
 10
-1.460530599
 20
-0.0665130494
 30
0.0
 11
-0.7939707316
 21
-0.7330729167
 31
0.0
  0
LINE
  5
A0
  8
DXF_US-1210_V2
 62
     3
 10
-1.460530599
 20
-0.4005792545
 30
0.0
 11
-1.1280369368
 21
-0.7330729167
 31
0.0
  0
LINE
  5
A1
  8
DXF_US-1210_V2
 62
     3
 10
2.539469401
 20
0.5169270833
 30
0.0
 11
-1.460530599
 21
0.5169270833
 31
0.0
  0
LINE
  5
A2
  8
DXF_US-1210_V2
 62
    18
 10
-0.0527296139
 20
-1.2080729167
 30
0.0
 11
0.3576789115
 21
-0.8121145962
 31
0.0
  0
LINE
  5
A3
  8
DXF_US-1210_V2
 62
    18
 10
-0.3856372421
 20
-1.2080729167
 30
0.0
 11
0.0893627579
 21
-0.7330729167
 31
0.0
  0
LINE
  5
A4
  8
DXF_US-1210_V2
 62
    18
 10
-0.2186041395
 20
-1.2080729167
 30
0.0
 11
0.2506788414
 21
-0.7387899357
 31
0.0
  0
TEXT
  5
A6
  8
DXF_US-1210_V2
 62
    18
 10
-1.6
 20
3.75
 30
0.0
 40
0.125
  1
CUTOUT TEMPLATE FOR MODEL #: 
  7
TEXT87
  0
TEXT
  5
A8
  8
DXF_US-1210_V2
 62
    18
 10
-1.4
 20
2.75
 30
0.0
 40
0.125
  1
UNDERMOUNT KITCHEN SINK 
  7
TEXT88
  0
LINE
  5
A9
  8
DXF_US-1210_V2
 62
    18
 10
4.522428241
 20
4.6875
 30
0.0
 11
-3.977571759
 21
4.6875
 31
0.0
  0
LINE
  5
AA
  8
DXF_US-1210_V2
 62
    18
 10
-3.977571759
 20
-5.4375
 30
0.0
 11
4.522428241
 21
-5.4375
 31
0.0
  0
DIMENSION
  5
AC
  8
DXF_US-1210_V2
 62
     5
  2
*D2
 10
6.3345
 20
5.611273045171648
 30
0.0
 11
0.2722139669000097
 21
5.611273045171648
 31
0.0
 70
    32
  3
ROTATEDDIM16
 13
-5.790072066199982
 23
2.875000045171648
 33
0.0
 14
6.3345
 24
2.875
 34
0.0
  0
TEXT
  5
BB
  8
DXF_US-1210_V2
 62
    18
 10
-1.25
 20
3.4
 30
0.0
 40
0.3333333432674408
  1
US-1210
  7
TEXT93
  0
LINE
  5
BC
  8
DXF_US-1210_V2
 62
     3
 10
-1.460530599
 20
0.5169270833
 30
0.0
 11
-1.460530599
 21
-0.7330729167
 31
0.0
  0
LINE
  5
BD
  8
DXF_US-1210_V2
 62
    18
 10
-5.7905
 20
2.875
 30
0.0
 11
-5.7905
 21
-3.625
 31
0.0
  0
DIMENSION
  5
BF
  8
DXF_US-1210_V2
 62
     5
  2
*D3
 10
-6.725927759
 20
-5.4375
 30
0.0
 11
-6.725927758999999
 21
-0.375
 31
0.0
 70
    32
  3
ROTATEDDIM17
 13
-3.977571759
 23
4.6875
 33
0.0
 14
-3.977571759
 24
-5.4375
 34
0.0
 50
90.0
  0
LINE
  5
CD
  8
DXF_US-1210_V2
 62
     1
 10
2.539469401
 20
0.1341384321
 30
0.0
 11
2.4490249359
 21
-0.0005417026
 31
0.0
  0
LINE
  5
CE
  8
DXF_US-1210_V2
 62
     1
 10
2.4490249359
 20
-0.0005417026
 30
0.0
 11
2.6291496342
 21
-0.2362319383
 31
0.0
  0
LINE
  5
CF
  8
DXF_US-1210_V2
 62
    18
 10
6.3345
 20
-3.625
 30
0.0
 11
6.3345
 21
2.875
 31
0.0
  0
LINE
  5
D0
  8
DXF_US-1210_V2
 62
    18
 10
-1.5049658182
 20
-2.6614676979
 30
0.0
 11
-1.1917685142
 21
-2.3482703939
 31
0.0
  0
LINE
  5
D1
  8
DXF_US-1210_V2
 62
    18
 10
-1.4406066573
 20
-1.9289761268
 30
0.0
 11
-1.1274093533
 21
-1.6157788227
 31
0.0
  0
LINE
  5
D2
  8
DXF_US-1210_V2
 62
    18
 10
-1.4084270769
 20
-1.5627303412
 30
0.0
 11
-0.5787696523
 21
-0.7330729167
 31
0.0
  0
SOLID
  5
D3
  8
DXF_US-1210_V2
 62
    18
 10
0.2037430621
 20
0.5169270833
 30
0.0
 11
0.2750573695063845
 21
0.7645568867549712
 31
0.0
 12
0.2037430621
 22
0.5169270833
 32
0.0
 13
0.3831991232020904
 23
0.7018642946278526
 33
0.0
  0
POLYLINE
  5
D4
  8
DXF_US-1210_V2
 62
    18
 10
0.0
 20
0.0
 30
0.0
 66
     1
 70
     8
  0
VERTEX
  5
D5
  8
DXF_US-1210_V2
 62
    18
 10
0.2037430554628372
 20
0.5169270634651184
 30
0.0
 70
    32
  0
VERTEX
  5
D6
  8
DXF_US-1210_V2
 62
    18
 10
0.2750573754310608
 20
0.764556884765625
 30
0.0
 70
    32
  0
VERTEX
  5
D7
  8
DXF_US-1210_V2
 62
    18
 10
0.3831991255283356
 20
0.7018643021583557
 30
0.0
 70
    32
  0
VERTEX
  5
D8
  8
DXF_US-1210_V2
 62
    18
 10
0.2037430554628372
 20
0.5169270634651184
 30
0.0
 70
    32
  0
VERTEX
  5
D9
  8
DXF_US-1210_V2
 62
    18
 10
0.2037430554628372
 20
0.5169270634651184
 30
0.0
 70
    32
  0
SEQEND
  5
DA
  8
DXF_US-1210_V2
 62
    18
  0
SOLID
  5
DB
  8
DXF_US-1210_V2
 62
    18
 10
-1.468928806
 20
-2.251319285
 30
0.0
 11
-1.723439745808951
 21
-2.29169788722401
 31
0.0
 12
-1.468928806
 22
-2.251319285
 32
0.0
 13
-1.712498977466255
 23
-2.167177609405209
 33
0.0
  0
POLYLINE
  5
DC
  8
DXF_US-1210_V2
 62
    18
 10
0.0
 20
0.0
 30
0.0
 66
     1
 70
     8
  0
VERTEX
  5
DD
  8
DXF_US-1210_V2
 62
    18
 10
-1.468928813934326
 20
-2.251319169998169
 30
0.0
 70
    32
  0
VERTEX
  5
DE
  8
DXF_US-1210_V2
 62
    18
 10
-1.723439693450928
 20
-2.291697978973389
 30
0.0
 70
    32
  0
VERTEX
  5
DF
  8
DXF_US-1210_V2
 62
    18
 10
-1.712499022483826
 20
-2.167177677154541
 30
0.0
 70
    32
  0
VERTEX
  5
E0
  8
DXF_US-1210_V2
 62
    18
 10
-1.468928813934326
 20
-2.251319169998169
 30
0.0
 70
    32
  0
VERTEX
  5
E1
  8
DXF_US-1210_V2
 62
    18
 10
-1.468928813934326
 20
-2.251319169998169
 30
0.0
 70
    32
  0
SEQEND
  5
E2
  8
DXF_US-1210_V2
 62
    18
  0
VIEWPORT
  5
3D
 67
     1
  8
0
 10
0.0
 20
0.0
 30
0.0
 40
1.0
 41
1.0
 68
     1
 69
     1
1001
ACAD
1000
MVIEW
1002
{
1070
    16
1010
0.0
1020
0.0
1030
0.0
1020
0.0
1030
0.0
1010
0.0
1020
0.0
1030
1.0
1020
0.0
1030
1.0
1040
0.0
1040
1.0
1040
0.0
1040
0.0
1040
50.0
1040
0.0
1040
0.0
1070
     0
1070
   100
1070
     0
1070
     3
1070
     0
1070
     0
1070
     0
1070
     0
1040
0.0
1040
0.0
1040
0.0
1040
0.5
1040
0.5
1040
0.0
1040
0.0
1070
     0
1002
{
1002
}
1002
}
  0
ENDSEC
  0
EOF
