  0
SECTION
  2
HEADER
  9
$ACADVER
  1
AC1012
  9
$DWGCODEPAGE
  3
ANSI_1252
  9
$INSBASE
 10
0.0
 20
0.0
 30
0.0
  9
$EXTMIN
 10
10.994563
 20
6.800941
 30
-0.001526
  9
$EXTMAX
 10
24.295692
 20
25.177656
 30
0.0
  9
$LIMMIN
 10
0.0
 20
0.0
  9
$LIMMAX
 10
16.79616
 20
11.157004
  9
$ORTHOMODE
 70
     1
  9
$REGENMODE
 70
     1
  9
$FILLMODE
 70
     1
  9
$QTEXTMODE
 70
     0
  9
$MIRRTEXT
 70
     1
  9
$DRAGMODE
 70
     2
  9
$LTSCALE
 40
1.0
  9
$OSMODE
 70
    33
  9
$ATTMODE
 70
     1
  9
$TEXTSIZE
 40
0.125
  9
$TRACEWID
 40
0.05
  9
$TEXTSTYLE
  7
ITALICC
  9
$CLAYER
  8
OBJECTS
  9
$CELTYPE
  6
BYLAYER
  9
$CECOLOR
 62
   256
  9
$CELTSCALE
 40
1.0
  9
$DELOBJ
 70
     1
  9
$DISPSILH
 70
     0
  9
$DIMSCALE
 40
0.0
  9
$DIMASZ
 40
0.5
  9
$DIMEXO
 40
0.25
  9
$DIMDLI
 40
0.375
  9
$DIMRND
 40
0.0
  9
$DIMDLE
 40
0.0
  9
$DIMEXE
 40
0.5
  9
$DIMTP
 40
0.0
  9
$DIMTM
 40
0.0
  9
$DIMTXT
 40
0.5
  9
$DIMCEN
 40
0.09375
  9
$DIMTSZ
 40
0.0
  9
$DIMTOL
 70
     0
  9
$DIMLIM
 70
     0
  9
$DIMTIH
 70
     1
  9
$DIMTOH
 70
     1
  9
$DIMSE1
 70
     0
  9
$DIMSE2
 70
     1
  9
$DIMTAD
 70
     0
  9
$DIMZIN
 70
     0
  9
$DIMBLK
  1

  9
$DIMASO
 70
     1
  9
$DIMSHO
 70
     1
  9
$DIMPOST
  1

  9
$DIMAPOST
  1

  9
$DIMALT
 70
     1
  9
$DIMALTD
 70
     0
  9
$DIMALTF
 40
25.4
  9
$DIMLFAC
 40
1.0
  9
$DIMTOFL
 70
     0
  9
$DIMTVP
 40
0.0
  9
$DIMTIX
 70
     0
  9
$DIMSOXD
 70
     0
  9
$DIMSAH
 70
     0
  9
$DIMBLK1
  1

  9
$DIMBLK2
  1

  9
$DIMSTYLE
  2
DETAILS
  9
$DIMCLRD
 70
     0
  9
$DIMCLRE
 70
     0
  9
$DIMCLRT
 70
   256
  9
$DIMTFAC
 40
1.0
  9
$DIMGAP
 40
0.25
  9
$DIMJUST
 70
     0
  9
$DIMSD1
 70
     0
  9
$DIMSD2
 70
     0
  9
$DIMTOLJ
 70
     1
  9
$DIMTZIN
 70
     0
  9
$DIMALTZ
 70
     1
  9
$DIMALTTZ
 70
     9
  9
$DIMFIT
 70
     3
  9
$DIMUPT
 70
     0
  9
$DIMUNIT
 70
     5
  9
$DIMDEC
 70
     3
  9
$DIMTDEC
 70
     0
  9
$DIMALTU
 70
     2
  9
$DIMALTTD
 70
     0
  9
$DIMTXSTY
  7
ROMANS
  9
$DIMAUNIT
 70
     0
  9
$LUNITS
 70
     5
  9
$LUPREC
 70
     4
  9
$SKETCHINC
 40
0.1
  9
$FILLETRAD
 40
0.25
  9
$AUNITS
 70
     0
  9
$AUPREC
 70
     4
  9
$MENU
  1
C:\ACADR13\WIN\SUPPORT\ACADFULL.mnc
  9
$ELEVATION
 40
0.0
  9
$PELEVATION
 40
0.0
  9
$THICKNESS
 40
0.0
  9
$LIMCHECK
 70
     0
  9
$BLIPMODE
 70
     0
  9
$CHAMFERA
 40
0.0
  9
$CHAMFERB
 40
0.0
  9
$CHAMFERC
 40
0.0
  9
$CHAMFERD
 40
0.0
  9
$SKPOLY
 70
     0
  9
$TDCREATE
 40
2449945.484475810
  9
$TDUPDATE
 40
2449945.655530671
  9
$TDINDWG
 40
0.1710548611
  9
$TDUSRTIMER
 40
0.1710548611
  9
$USRTIMER
 70
     1
  9
$ANGBASE
 50
0.0
  9
$ANGDIR
 70
     0
  9
$PDMODE
 70
     0
  9
$PDSIZE
 40
0.0
  9
$PLINEWID
 40
0.0
  9
$COORDS
 70
     1
  9
$SPLFRAME
 70
     0
  9
$SPLINETYPE
 70
     6
  9
$SPLINESEGS
 70
     8
  9
$ATTDIA
 70
     0
  9
$ATTREQ
 70
     1
  9
$HANDLING
 70
     1
  9
$HANDSEED
  5
C87
  9
$SURFTAB1
 70
     6
  9
$SURFTAB2
 70
     6
  9
$SURFTYPE
 70
     6
  9
$SURFU
 70
     6
  9
$SURFV
 70
     6
  9
$UCSNAME
  2

  9
$UCSORG
 10
0.0
 20
0.0
 30
0.0
  9
$UCSXDIR
 10
1.0
 20
0.0
 30
0.0
  9
$UCSYDIR
 10
0.0
 20
1.0
 30
0.0
  9
$PUCSNAME
  2

  9
$PUCSORG
 10
0.0
 20
0.0
 30
0.0
  9
$PUCSXDIR
 10
1.0
 20
0.0
 30
0.0
  9
$PUCSYDIR
 10
0.0
 20
1.0
 30
0.0
  9
$USERI1
 70
     0
  9
$USERI2
 70
     0
  9
$USERI3
 70
     0
  9
$USERI4
 70
     0
  9
$USERI5
 70
     0
  9
$USERR1
 40
0.0
  9
$USERR2
 40
0.0
  9
$USERR3
 40
0.0
  9
$USERR4
 40
0.0
  9
$USERR5
 40
0.0
  9
$WORLDVIEW
 70
     1
  9
$SHADEDGE
 70
     3
  9
$SHADEDIF
 70
    70
  9
$TILEMODE
 70
     1
  9
$MAXACTVP
 70
    16
  9
$PINSBASE
 10
0.0
 20
0.0
 30
0.0
  9
$PLIMCHECK
 70
     0
  9
$PEXTMIN
 10
1.000000E+20
 20
1.000000E+20
 30
1.000000E+20
  9
$PEXTMAX
 10
-1.000000E+20
 20
-1.000000E+20
 30
-1.000000E+20
  9
$PLIMMIN
 10
0.0
 20
0.0
  9
$PLIMMAX
 10
12.0
 20
9.0
  9
$UNITMODE
 70
     0
  9
$VISRETAIN
 70
     0
  9
$PLINEGEN
 70
     0
  9
$PSLTSCALE
 70
     1
  9
$TREEDEPTH
 70
  3020
  9
$PICKSTYLE
 70
     1
  9
$CMLSTYLE
  2
STANDARD
  9
$CMLJUST
 70
     0
  9
$CMLSCALE
 40
1.0
  9
$SAVEIMAGES
 70
     1
  0
ENDSEC
  0
SECTION
  2
CLASSES
  0
CLASS
  1
LWPOLYLINE
  2
AcDbPolyline
  3
"AutoCAD"
 90
    32768
280
     0
281
     1
  0
ENDSEC
  0
SECTION
  2
TABLES
  0
TABLE
  2
VPORT
  5
8
100
AcDbSymbolTable
 70
     2
  0
VPORT
  5
C86
100
AcDbSymbolTableRecord
100
AcDbViewportTableRecord
  2
*ACTIVE
 70
     0
 10
0.0
 20
0.0
 11
1.0
 21
1.0
 12
17.645128
 22
15.989298
 13
0.0
 23
0.0
 14
1.0
 24
1.0
 15
0.0
 25
0.0
 16
0.0
 26
0.0
 36
1.0
 17
0.0
 27
0.0
 37
0.0
 40
18.520096
 41
1.53776
 42
50.0
 43
0.0
 44
0.0
 50
0.0
 51
0.0
 71
     0
 72
  1500
 73
     1
 74
     0
 75
     0
 76
     0
 77
     0
 78
     0
  0
ENDTAB
  0
TABLE
  2
LTYPE
  5
5
100
AcDbSymbolTable
 70
     3
  0
LTYPE
  5
14
100
AcDbSymbolTableRecord
100
AcDbLinetypeTableRecord
  2
BYBLOCK
 70
     0
  3

 72
    65
 73
     0
 40
0.0
  0
LTYPE
  5
15
100
AcDbSymbolTableRecord
100
AcDbLinetypeTableRecord
  2
BYLAYER
 70
     0
  3

 72
    65
 73
     0
 40
0.0
  0
LTYPE
  5
16
100
AcDbSymbolTableRecord
100
AcDbLinetypeTableRecord
  2
CONTINUOUS
 70
     0
  3
Solid line
 72
    65
 73
     0
 40
0.0
  0
LTYPE
  5
34
100
AcDbSymbolTableRecord
100
AcDbLinetypeTableRecord
  2
HIDDEN
 70
     0
  3
__ __ __ __ __ __ __ __ __ __ __ __ __ __ __ __
 72
    65
 73
     2
 40
0.375
 49
0.25
 74
     0
 49
-0.125
 74
     0
  0
LTYPE
  5
9AA
100
AcDbSymbolTableRecord
100
AcDbLinetypeTableRecord
  2
CENTER
 70
     0
  3
____ _ ____ _ ____ _ ____ _ ____ _ ____ _ ____ 
 72
    65
 73
     4
 40
2.0
 49
1.25
 74
     0
 49
-0.25
 74
     0
 49
0.25
 74
     0
 49
-0.25
 74
     0
  0
ENDTAB
  0
TABLE
  2
LAYER
  5
2
100
AcDbSymbolTable
 70
     9
  0
LAYER
  5
F
100
AcDbSymbolTableRecord
100
AcDbLayerTableRecord
  2
0
 70
     0
 62
     7
  6
CONTINUOUS
  0
LAYER
  5
55
100
AcDbSymbolTableRecord
100
AcDbLayerTableRecord
  2
DIM
 70
     0
 62
     2
  6
CONTINUOUS
  0
LAYER
  5
56
100
AcDbSymbolTableRecord
100
AcDbLayerTableRecord
  2
OBJECTS
 70
     0
 62
     3
  6
CONTINUOUS
  0
LAYER
  5
5B
100
AcDbSymbolTableRecord
100
AcDbLayerTableRecord
  2
ASHADE
 70
     0
 62
     7
  6
CONTINUOUS
  0
LAYER
  5
92
100
AcDbSymbolTableRecord
100
AcDbLayerTableRecord
  2
DEFPOINTS
 70
     0
 62
     7
  6
CONTINUOUS
  0
ENDTAB
  0
TABLE
  2
STYLE
  5
3
100
AcDbSymbolTable
 70
     6
  0
STYLE
  5
10
100
AcDbSymbolTableRecord
100
AcDbTextStyleTableRecord
  2
STANDARD
 70
     0
 40
0.0
 41
1.0
 50
0.0
 71
     0
 42
0.2
  3
txt
  4

  0
STYLE
  5
49
100
AcDbSymbolTableRecord
100
AcDbTextStyleTableRecord
  2

 70
     1
 40
0.0
 41
1.0
 50
0.0
 71
     0
 42
0.2
  3
ltypeshp.shx
  4

  0
STYLE
  5
58
100
AcDbSymbolTableRecord
100
AcDbTextStyleTableRecord
  2
ASHADE
 70
     0
 40
0.2
 41
1.0
 50
0.0
 71
     0
 42
0.2
  3
simplex
  4

  0
STYLE
  5
74
100
AcDbSymbolTableRecord
100
AcDbTextStyleTableRecord
  2
ITALICC
 70
     0
 40
0.0
 41
0.85
 50
0.0
 71
     0
 42
0.125
  3
C:\ACADR13\COMMON\FONTS\ITALICC.SHX
  4

  0
STYLE
  5
11F
100
AcDbSymbolTableRecord
100
AcDbTextStyleTableRecord
  2
ROMANS
 70
     0
 40
0.0
 41
0.85
 50
0.0
 71
     0
 42
0.125
  3
C:\ACADR13\COMMON\FONTS\ROMANS.SHX
  4

  0
STYLE
  5
542
100
AcDbSymbolTableRecord
100
AcDbTextStyleTableRecord
  2
STD
 70
     0
 40
0.0
 41
1.0
 50
0.0
 71
     0
 42
0.125
  3
ITALICC
  4

  0
ENDTAB
  0
TABLE
  2
VIEW
  5
6
100
AcDbSymbolTable
 70
     0
  0
ENDTAB
  0
TABLE
  2
UCS
  5
7
100
AcDbSymbolTable
 70
     0
  0
ENDTAB
  0
TABLE
  2
APPID
  5
9
100
AcDbSymbolTable
 70
     6
  0
APPID
  5
11
100
AcDbSymbolTableRecord
100
AcDbRegAppTableRecord
  2
ACAD
 70
     0
  0
APPID
  5
59
100
AcDbSymbolTableRecord
100
AcDbRegAppTableRecord
  2
AVE_RENDER
 70
     0
  0
APPID
  5
5A
100
AcDbSymbolTableRecord
100
AcDbRegAppTableRecord
  2
AVE_ENTITY_MATERIAL
 70
     0
  0
APPID
  5
67
100
AcDbSymbolTableRecord
100
AcDbRegAppTableRecord
  2
AVE_FINISH
 70
     0
  0
APPID
  5
68
100
AcDbSymbolTableRecord
100
AcDbRegAppTableRecord
  2
AVE_MATERIAL
 70
     0
  0
APPID
  5
69
100
AcDbSymbolTableRecord
100
AcDbRegAppTableRecord
  2
AVE_GLOBAL
 70
     0
  0
ENDTAB
  0
TABLE
  2
DIMSTYLE
  5
A
100
AcDbSymbolTable
 70
     2
  0
DIMSTYLE
105
1D
100
AcDbSymbolTableRecord
100
AcDbDimStyleTableRecord
  2
DETAILS
 70
     0
  3

  4

  5

  6

  7

 40
1.0
 41
0.125
 42
0.09375
 43
0.375
 44
0.125
 45
0.0
 46
0.0
 47
0.0
 48
0.0
140
0.125
141
0.09375
142
0.0
143
25.4
144
1.0
145
0.0
146
1.0
147
0.094
 71
     0
 72
     0
 73
     1
 74
     1
 75
     0
 76
     0
 77
     0
 78
    12
170
     0
171
     0
172
     0
173
     0
174
     0
175
     0
176
     0
177
     0
178
   256
270
     5
271
     3
272
     0
273
     2
274
     0
340
74
275
     0
280
     0
281
     0
282
     0
283
     1
284
     0
285
     1
286
     9
287
     3
288
     0
  0
DIMSTYLE
105
380
100
AcDbSymbolTableRecord
100
AcDbDimStyleTableRecord
  2
SALES
 70
     0
  3

  4

  5

  6

  7

 40
1.0
 41
0.5
 42
0.3
 43
0.375
 44
0.5
 45
0.0
 46
0.0
 47
0.0
 48
0.0
140
0.5
141
0.094
142
0.0
143
25.4
144
1.0
145
0.0
146
1.0
147
0.375
 71
     0
 72
     0
 73
     1
 74
     1
 75
     0
 76
     0
 77
     0
 78
    12
170
     0
171
     0
172
     0
173
     0
174
     0
175
     0
176
     0
177
     0
178
   256
270
     5
271
     3
272
     0
273
     2
274
     0
340
11F
275
     0
280
     0
281
     0
282
     0
283
     1
284
     0
285
     1
286
     9
287
     3
288
     0
  0
ENDTAB
  0
TABLE
  2
BLOCK_RECORD
  5
1
100
AcDbSymbolTable
 70
    44
  0
BLOCK_RECORD
  5
1A
100
AcDbSymbolTableRecord
100
AcDbBlockTableRecord
  2
*MODEL_SPACE
  0
BLOCK_RECORD
  5
17
100
AcDbSymbolTableRecord
100
AcDbBlockTableRecord
  2
*PAPER_SPACE
  0
BLOCK_RECORD
  5
5C
100
AcDbSymbolTableRecord
100
AcDbBlockTableRecord
  2
AVE_RENDER
  0
BLOCK_RECORD
  5
6A
100
AcDbSymbolTableRecord
100
AcDbBlockTableRecord
  2
AVE_GLOBAL
  0
BLOCK_RECORD
  5
7C7
100
AcDbSymbolTableRecord
100
AcDbBlockTableRecord
  2
*X25
  0
BLOCK_RECORD
  5
8DA
100
AcDbSymbolTableRecord
100
AcDbBlockTableRecord
  2
*X31
  0
BLOCK_RECORD
  5
9B1
100
AcDbSymbolTableRecord
100
AcDbBlockTableRecord
  2
*D33
  0
BLOCK_RECORD
  5
9CB
100
AcDbSymbolTableRecord
100
AcDbBlockTableRecord
  2
*D34
  0
BLOCK_RECORD
  5
A18
100
AcDbSymbolTableRecord
100
AcDbBlockTableRecord
  2
*D36
  0
BLOCK_RECORD
  5
AE4
100
AcDbSymbolTableRecord
100
AcDbBlockTableRecord
  2
*X38
  0
BLOCK_RECORD
  5
B53
100
AcDbSymbolTableRecord
100
AcDbBlockTableRecord
  2
*D39
  0
BLOCK_RECORD
  5
BFB
100
AcDbSymbolTableRecord
100
AcDbBlockTableRecord
  2
*X42
  0
BLOCK_RECORD
  5
C2C
100
AcDbSymbolTableRecord
100
AcDbBlockTableRecord
  2
*X43
  0
ENDTAB
  0
ENDSEC
  0
SECTION
  2
BLOCKS
  0
BLOCK
  5
1B
100
AcDbEntity
  8
0
100
AcDbBlockBegin
  2
*MODEL_SPACE
 70
     0
 10
0.0
 20
0.0
 30
0.0
  3
*MODEL_SPACE
  1

  0
ENDBLK
  5
1C
100
AcDbEntity
  8
0
100
AcDbBlockEnd
  0
BLOCK
  5
18
100
AcDbEntity
 67
     1
  8
0
100
AcDbBlockBegin
  2
*PAPER_SPACE
 70
     0
 10
0.0
 20
0.0
 30
0.0
  3
*PAPER_SPACE
  1

  0
ENDBLK
  5
19
100
AcDbEntity
 67
     1
  8
0
100
AcDbBlockEnd
  0
BLOCK
  5
5D
100
AcDbEntity
  8
0
100
AcDbBlockBegin
  2
AVE_RENDER
 70
     0
 10
0.0
 20
0.0
 30
0.0
  3
AVE_RENDER
  1
AVE_RENDER
  0
ENDBLK
  5
5E
100
AcDbEntity
  8
0
100
AcDbBlockEnd
  0
BLOCK
  5
6B
100
AcDbEntity
  8
0
100
AcDbBlockBegin
  2
AVE_GLOBAL
 70
     0
 10
0.0
 20
0.0
 30
0.0
  3
AVE_GLOBAL
  1
AVE_GLOBAL
  0
ENDBLK
  5
6C
100
AcDbEntity
  8
0
100
AcDbBlockEnd
  0
BLOCK
  5
7C8
100
AcDbEntity
  8
0
100
AcDbBlockBegin
  2
*X25
 70
     1
 10
0.0
 20
0.0
 30
0.0
  3
*X25
  1
AVE_GLOBAL
  0
LINE
  5
7CA
100
AcDbEntity
  8
0
 62
     0
100
AcDbLine
 10
19.07316
 20
12.25
 30
0.0
 11
19.39316
 21
12.25
 31
0.0
  0
LINE
  5
7CB
100
AcDbEntity
  8
0
 62
     0
100
AcDbLine
 10
19.07316
 20
12.375
 30
0.0
 11
19.39316
 21
12.375
 31
0.0
  0
LINE
  5
7CC
100
AcDbEntity
  8
0
 62
     0
100
AcDbLine
 10
19.07316
 20
12.5
 30
0.0
 11
19.39316
 21
12.5
 31
0.0
  0
LINE
  5
7CD
100
AcDbEntity
  8
0
 62
     0
100
AcDbLine
 10
19.07316
 20
12.625
 30
0.0
 11
19.39316
 21
12.625
 31
0.0
  0
LINE
  5
7CE
100
AcDbEntity
  8
0
 62
     0
100
AcDbLine
 10
19.07316
 20
12.75
 30
0.0
 11
19.39316
 21
12.75
 31
0.0
  0
LINE
  5
7CF
100
AcDbEntity
  8
0
 62
     0
100
AcDbLine
 10
19.07316
 20
12.125
 30
0.0
 11
19.39316
 21
12.125
 31
0.0
  0
LINE
  5
7D0
100
AcDbEntity
  8
0
 62
     0
100
AcDbLine
 10
19.07316
 20
12.0
 30
0.0
 11
19.39316
 21
12.0
 31
0.0
  0
LINE
  5
7D1
100
AcDbEntity
  8
0
 62
     0
100
AcDbLine
 10
19.07316
 20
11.875
 30
0.0
 11
19.39316
 21
11.875
 31
0.0
  0
LINE
  5
7D2
100
AcDbEntity
  8
0
 62
     0
100
AcDbLine
 10
19.07316
 20
12.285682
 30
0.0
 11
19.384826
 21
12.825504
 31
0.0
  0
LINE
  5
7D3
100
AcDbEntity
  8
0
 62
     0
100
AcDbLine
 10
19.07316
 20
12.535682
 30
0.0
 11
19.240489
 21
12.825504
 31
0.0
  0
LINE
  5
7D4
100
AcDbEntity
  8
0
 62
     0
100
AcDbLine
 10
19.07316
 20
12.785682
 30
0.0
 11
19.096151
 21
12.825504
 31
0.0
  0
LINE
  5
7D5
100
AcDbEntity
  8
0
 62
     0
100
AcDbLine
 10
19.07316
 20
12.035682
 30
0.0
 11
19.39316
 21
12.589939
 31
0.0
  0
LINE
  5
7D6
100
AcDbEntity
  8
0
 62
     0
100
AcDbLine
 10
19.096151
 20
11.825504
 30
0.0
 11
19.39316
 21
12.339939
 31
0.0
  0
LINE
  5
7D7
100
AcDbEntity
  8
0
 62
     0
100
AcDbLine
 10
19.240489
 20
11.825504
 30
0.0
 11
19.39316
 21
12.089939
 31
0.0
  0
LINE
  5
7D8
100
AcDbEntity
  8
0
 62
     0
100
AcDbLine
 10
19.384826
 20
11.825504
 30
0.0
 11
19.39316
 21
11.839939
 31
0.0
  0
LINE
  5
7D9
100
AcDbEntity
  8
0
 62
     0
100
AcDbLine
 10
19.39316
 20
11.910061
 30
0.0
 11
19.07316
 21
12.464318
 31
0.0
  0
LINE
  5
7DA
100
AcDbEntity
  8
0
 62
     0
100
AcDbLine
 10
19.297642
 20
11.825504
 30
0.0
 11
19.07316
 21
12.214318
 31
0.0
  0
LINE
  5
7DB
100
AcDbEntity
  8
0
 62
     0
100
AcDbLine
 10
19.153304
 20
11.825504
 30
0.0
 11
19.07316
 21
11.964318
 31
0.0
  0
LINE
  5
7DC
100
AcDbEntity
  8
0
 62
     0
100
AcDbLine
 10
19.39316
 20
12.160061
 30
0.0
 11
19.07316
 21
12.714318
 31
0.0
  0
LINE
  5
7DD
100
AcDbEntity
  8
0
 62
     0
100
AcDbLine
 10
19.39316
 20
12.410061
 30
0.0
 11
19.153304
 21
12.825504
 31
0.0
  0
LINE
  5
7DE
100
AcDbEntity
  8
0
 62
     0
100
AcDbLine
 10
19.39316
 20
12.660061
 30
0.0
 11
19.297642
 21
12.825504
 31
0.0
  0
ENDBLK
  5
7DF
100
AcDbEntity
  8
0
100
AcDbBlockEnd
  0
BLOCK
  5
8DB
100
AcDbEntity
  8
0
100
AcDbBlockBegin
  2
*X31
 70
     1
 10
0.0
 20
0.0
 30
0.0
  3
*X31
  1
AVE_GLOBAL
  0
LINE
  5
8DD
100
AcDbEntity
  8
0
 62
     0
100
AcDbLine
 10
5.805116
 20
9.751233
 30
0.0
 11
5.654035
 21
9.902314
 31
0.0
  0
LINE
  5
8DE
100
AcDbEntity
  8
0
 62
     0
100
AcDbLine
 10
5.834035
 20
9.899091
 30
0.0
 11
5.697393
 21
10.035733
 31
0.0
  0
ENDBLK
  5
8DF
100
AcDbEntity
  8
0
100
AcDbBlockEnd
  0
BLOCK
  5
A32
100
AcDbEntity
  8
0
100
AcDbBlockBegin
  2
*D33
 70
     1
 10
0.0
 20
0.0
 30
0.0
  3
*D33
  1
AVE_GLOBAL
  0
LINE
  5
A33
100
AcDbEntity
  8
0
  6
BYBLOCK
 62
     0
100
AcDbLine
 10
15.43356
 20
9.352754
 30
0.0
 11
24.294951
 21
9.352754
 31
0.0
  0
LINE
  5
A34
100
AcDbEntity
  8
0
  6
BYBLOCK
 62
     0
100
AcDbLine
 10
14.62106
 20
22.352754
 30
0.0
 11
24.294951
 21
22.352754
 31
0.0
  0
LINE
  5
A35
100
AcDbEntity
  8
0
  6
BYBLOCK
 62
     0
100
AcDbLine
 10
23.794951
 20
9.852754
 30
0.0
 11
23.794951
 21
15.352754
 31
0.0
  0
LINE
  5
A36
100
AcDbEntity
  8
0
  6
BYBLOCK
 62
     0
100
AcDbLine
 10
23.794951
 20
21.852754
 30
0.0
 11
23.794951
 21
16.352754
 31
0.0
  0
SOLID
  5
A37
100
AcDbEntity
  8
0
  6
BYBLOCK
 62
     0
100
AcDbTrace
 10
23.711618
 20
9.852754
 30
0.0
 11
23.878284
 21
9.852754
 31
0.0
 12
23.794951
 22
9.352754
 32
0.0
 13
23.794951
 23
9.352754
 33
0.0
  0
SOLID
  5
A38
100
AcDbEntity
  8
0
  6
BYBLOCK
 62
     0
100
AcDbTrace
 10
23.711618
 20
21.852754
 30
0.0
 11
23.878284
 21
21.852754
 31
0.0
 12
23.794951
 22
22.352754
 32
0.0
 13
23.794951
 23
22.352754
 33
0.0
  0
MTEXT
  5
A39
100
AcDbEntity
  8
0
  6
BYBLOCK
100
AcDbMText
 10
23.794951
 20
15.852754
 30
0.0
 40
0.5
 41
0.0
 71
     5
 72
     1
  1
\A1;{C}
  7
ROMANS
  0
POINT
  5
A3A
100
AcDbEntity
  8
DEFPOINTS
  6
BYBLOCK
 62
     0
100
AcDbPoint
 10
15.18356
 20
9.352754
 30
0.0
  0
POINT
  5
A3B
100
AcDbEntity
  8
DEFPOINTS
  6
BYBLOCK
 62
     0
100
AcDbPoint
 10
14.37106
 20
22.352754
 30
0.0
  0
POINT
  5
A3C
100
AcDbEntity
  8
DEFPOINTS
  6
BYBLOCK
 62
     0
100
AcDbPoint
 10
23.794951
 20
22.352754
 30
0.0
  0
ENDBLK
  5
A3D
100
AcDbEntity
  8
0
100
AcDbBlockEnd
  0
BLOCK
  5
C75
100
AcDbEntity
  8
0
100
AcDbBlockBegin
  2
*D34
 70
     1
 10
0.0
 20
0.0
 30
0.0
  3
*D34
  1
AVE_GLOBAL
  0
LINE
  5
C76
100
AcDbEntity
  8
0
  6
BYBLOCK
 62
     0
100
AcDbLine
 10
19.26816
 20
13.075504
 30
0.0
 11
19.26816
 21
17.822751
 31
0.0
  0
LINE
  5
C77
100
AcDbEntity
  8
0
  6
BYBLOCK
 62
     0
100
AcDbLine
 10
14.30856
 20
17.322751
 30
0.0
 11
18.76816
 21
17.322751
 31
0.0
  0
LINE
  5
C78
100
AcDbEntity
  8
0
  6
BYBLOCK
 62
     0
100
AcDbLine
 10
19.26816
 20
17.322751
 30
0.0
 11
20.239982
 21
17.322751
 31
0.0
  0
SOLID
  5
C79
100
AcDbEntity
  8
0
  6
BYBLOCK
 62
     0
100
AcDbTrace
 10
14.30856
 20
17.406085
 30
0.0
 11
14.30856
 21
17.239418
 31
0.0
 12
13.80856
 22
17.322751
 32
0.0
 13
13.80856
 23
17.322751
 33
0.0
  0
SOLID
  5
C7A
100
AcDbEntity
  8
0
  6
BYBLOCK
 62
     0
100
AcDbTrace
 10
18.76816
 20
17.406085
 30
0.0
 11
18.76816
 21
17.239418
 31
0.0
 12
19.26816
 22
17.322751
 32
0.0
 13
19.26816
 23
17.322751
 33
0.0
  0
MTEXT
  5
C7B
100
AcDbEntity
  8
0
  6
BYBLOCK
100
AcDbMText
 10
21.88641
 20
17.322751
 30
0.0
 40
0.5
 41
0.0
 71
     5
 72
     1
  1
\A1;5{\H1.000000x;\S1/2;} [139]
  7
ROMANS
  0
POINT
  5
C7C
100
AcDbEntity
  8
DEFPOINTS
  6
BYBLOCK
 62
     0
100
AcDbPoint
 10
19.26816
 20
12.825504
 30
0.0
  0
POINT
  5
C7D
100
AcDbEntity
  8
DEFPOINTS
  6
BYBLOCK
 62
     0
100
AcDbPoint
 10
13.80856
 20
12.825504
 30
0.0
  0
POINT
  5
C7E
100
AcDbEntity
  8
DEFPOINTS
  6
BYBLOCK
 62
     0
100
AcDbPoint
 10
13.80856
 20
17.322751
 30
0.0
  0
ENDBLK
  5
C7F
100
AcDbEntity
  8
0
100
AcDbBlockEnd
  0
BLOCK
  5
A26
100
AcDbEntity
  8
0
100
AcDbBlockBegin
  2
*D36
 70
     1
 10
0.0
 20
0.0
 30
0.0
  3
*D36
  1
AVE_GLOBAL
  0
LINE
  5
A27
100
AcDbEntity
  8
0
  6
BYBLOCK
 62
     0
100
AcDbLine
 10
12.62106
 20
9.102754
 30
0.0
 11
12.62106
 21
6.800956
 31
0.0
  0
LINE
  5
A28
100
AcDbEntity
  8
0
  6
BYBLOCK
 62
     0
100
AcDbLine
 10
14.99606
 20
9.102754
 30
0.0
 11
14.99606
 21
6.800956
 31
0.0
  0
LINE
  5
A29
100
AcDbEntity
  8
0
  6
BYBLOCK
 62
     0
100
AcDbLine
 10
13.12106
 20
7.300956
 30
0.0
 11
14.49606
 21
7.300956
 31
0.0
  0
LINE
  5
A2A
100
AcDbEntity
  8
0
  6
BYBLOCK
 62
     0
100
AcDbLine
 10
14.99606
 20
7.300956
 30
0.0
 11
15.49606
 21
7.300956
 31
0.0
  0
SOLID
  5
A2B
100
AcDbEntity
  8
0
  6
BYBLOCK
 62
     0
100
AcDbTrace
 10
13.12106
 20
7.384289
 30
0.0
 11
13.12106
 21
7.217622
 31
0.0
 12
12.62106
 22
7.300956
 32
0.0
 13
12.62106
 23
7.300956
 33
0.0
  0
SOLID
  5
A2C
100
AcDbEntity
  8
0
  6
BYBLOCK
 62
     0
100
AcDbTrace
 10
14.49606
 20
7.384289
 30
0.0
 11
14.49606
 21
7.217622
 31
0.0
 12
14.99606
 22
7.300956
 32
0.0
 13
14.99606
 23
7.300956
 33
0.0
  0
MTEXT
  5
A2D
100
AcDbEntity
  8
0
  6
BYBLOCK
100
AcDbMText
 10
17.55737
 20
7.300956
 30
0.0
 40
0.5
 41
0.0
 71
     5
 72
     1
  1
\A1;{2[51] I.P.S.}
  7
ROMANS
  0
POINT
  5
A2E
100
AcDbEntity
  8
DEFPOINTS
  6
BYBLOCK
 62
     0
100
AcDbPoint
 10
12.62106
 20
9.352754
 30
0.0
  0
POINT
  5
A2F
100
AcDbEntity
  8
DEFPOINTS
  6
BYBLOCK
 62
     0
100
AcDbPoint
 10
14.99606
 20
9.352754
 30
0.0
  0
POINT
  5
A30
100
AcDbEntity
  8
DEFPOINTS
  6
BYBLOCK
 62
     0
100
AcDbPoint
 10
14.99606
 20
7.300956
 30
0.0
  0
ENDBLK
  5
A31
100
AcDbEntity
  8
0
100
AcDbBlockEnd
  0
BLOCK
  5
AE5
100
AcDbEntity
  8
0
100
AcDbBlockBegin
  2
*X38
 70
     1
 10
0.0
 20
0.0
 30
0.0
  3
*X38
  1
AVE_GLOBAL
  0
LINE
  5
AE7
100
AcDbEntity
  8
0
 62
     0
100
AcDbLine
 10
11.414318
 20
10.353658
 30
0.0
 11
11.603788
 21
10.543127
 31
0.0
  0
LINE
  5
AE8
100
AcDbEntity
  8
0
 62
     0
100
AcDbLine
 10
11.331743
 20
10.447859
 30
0.0
 11
11.55856
 21
10.674677
 31
0.0
  0
LINE
  5
AE9
100
AcDbEntity
  8
0
 62
     0
100
AcDbLine
 10
11.272988
 20
10.565881
 30
0.0
 11
11.55856
 21
10.851453
 31
0.0
  0
LINE
  5
AEA
100
AcDbEntity
  8
0
 62
     0
100
AcDbLine
 10
11.561637
 20
10.85453
 30
0.0
 11
11.605138
 21
10.898031
 31
0.0
  0
LINE
  5
AEB
100
AcDbEntity
  8
0
 62
     0
100
AcDbLine
 10
11.195584
 20
10.665254
 30
0.0
 11
11.24596
 21
10.71563
 31
0.0
  0
LINE
  5
AEC
100
AcDbEntity
  8
0
 62
     0
100
AcDbLine
 10
11.24596
 20
10.71563
 30
0.0
 11
11.584572
 21
11.054242
 31
0.0
  0
LINE
  5
AED
100
AcDbEntity
  8
0
 62
     0
100
AcDbLine
 10
11.018807
 20
10.665254
 30
0.0
 11
11.24596
 21
10.892407
 31
0.0
  0
LINE
  5
AEE
100
AcDbEntity
  8
0
 62
     0
100
AcDbLine
 10
11.578886
 20
11.225333
 30
0.0
 11
11.60976
 21
11.256206
 31
0.0
  0
LINE
  5
AEF
100
AcDbEntity
  8
0
 62
     0
100
AcDbLine
 10
11.24596
 20
10.892407
 30
0.0
 11
11.564006
 21
11.210453
 31
0.0
  0
LINE
  5
AF0
100
AcDbEntity
  8
0
 62
     0
100
AcDbLine
 10
10.99596
 20
10.819183
 30
0.0
 11
11.24596
 21
11.069183
 31
0.0
  0
LINE
  5
AF1
100
AcDbEntity
  8
0
 62
     0
100
AcDbLine
 10
11.24596
 20
11.069183
 30
0.0
 11
11.589194
 21
11.412417
 31
0.0
  0
LINE
  5
AF2
100
AcDbEntity
  8
0
 62
     0
100
AcDbLine
 10
10.99596
 20
10.99596
 30
0.0
 11
11.24596
 21
11.24596
 31
0.0
  0
LINE
  5
AF3
100
AcDbEntity
  8
0
 62
     0
100
AcDbLine
 10
11.596136
 20
11.596136
 30
0.0
 11
11.614382
 21
11.614382
 31
0.0
  0
LINE
  5
AF4
100
AcDbEntity
  8
0
 62
     0
100
AcDbLine
 10
11.24596
 20
11.24596
 30
0.0
 11
11.568628
 21
11.568628
 31
0.0
  0
LINE
  5
AF5
100
AcDbEntity
  8
0
 62
     0
100
AcDbLine
 10
10.99596
 20
11.172737
 30
0.0
 11
11.24596
 21
11.422737
 31
0.0
  0
LINE
  5
AF6
100
AcDbEntity
  8
0
 62
     0
100
AcDbLine
 10
11.24596
 20
11.422737
 30
0.0
 11
11.593816
 21
11.770593
 31
0.0
  0
LINE
  5
AF7
100
AcDbEntity
  8
0
 62
     0
100
AcDbLine
 10
10.99596
 20
11.349513
 30
0.0
 11
11.24596
 21
11.599513
 31
0.0
  0
LINE
  5
AF8
100
AcDbEntity
  8
0
 62
     0
100
AcDbLine
 10
11.24596
 20
11.599513
 30
0.0
 11
11.4992
 21
11.852754
 31
0.0
  0
LINE
  5
AF9
100
AcDbEntity
  8
0
 62
     0
100
AcDbLine
 10
10.99596
 20
11.52629
 30
0.0
 11
11.24596
 21
11.77629
 31
0.0
  0
LINE
  5
AFA
100
AcDbEntity
  8
0
 62
     0
100
AcDbLine
 10
11.24596
 20
11.77629
 30
0.0
 11
11.322424
 21
11.852754
 31
0.0
  0
LINE
  5
AFB
100
AcDbEntity
  8
0
 62
     0
100
AcDbLine
 10
10.99596
 20
11.703067
 30
0.0
 11
11.145647
 21
11.852754
 31
0.0
  0
LINE
  5
AFC
100
AcDbEntity
  8
0
 62
     0
100
AcDbLine
 10
11.519477
 20
10.28204
 30
0.0
 11
11.717395
 21
10.479958
 31
0.0
  0
LINE
  5
AFD
100
AcDbEntity
  8
0
 62
     0
100
AcDbLine
 10
11.651073
 20
10.236859
 30
0.0
 11
11.891967
 21
10.477754
 31
0.0
  0
LINE
  5
AFE
100
AcDbEntity
  8
0
 62
     0
100
AcDbLine
 10
11.818744
 20
10.227754
 30
0.0
 11
12.068744
 21
10.477754
 31
0.0
  0
LINE
  5
AFF
100
AcDbEntity
  8
0
 62
     0
100
AcDbLine
 10
11.959178
 20
10.191411
 30
0.0
 11
12.245521
 21
10.477754
 31
0.0
  0
LINE
  5
B00
100
AcDbEntity
  8
0
 62
     0
100
AcDbLine
 10
11.99606
 20
10.051516
 30
0.0
 11
12.25131
 21
10.306766
 31
0.0
  0
LINE
  5
B01
100
AcDbEntity
  8
0
 62
     0
100
AcDbLine
 10
12.297297
 20
10.352754
 30
0.0
 11
12.344359
 21
10.399815
 31
0.0
  0
LINE
  5
B02
100
AcDbEntity
  8
0
 62
     0
100
AcDbLine
 10
12.055281
 20
9.933961
 30
0.0
 11
12.344074
 21
10.222754
 31
0.0
  0
LINE
  5
B03
100
AcDbEntity
  8
0
 62
     0
100
AcDbLine
 10
12.213351
 20
9.915254
 30
0.0
 11
12.520851
 21
10.222754
 31
0.0
  0
LINE
  5
B04
100
AcDbEntity
  8
0
 62
     0
100
AcDbLine
 10
12.343466
 20
9.868593
 30
0.0
 11
12.62106
 21
10.146186
 31
0.0
  0
LINE
  5
B05
100
AcDbEntity
  8
0
 62
     0
100
AcDbLine
 10
12.37106
 20
9.71941
 30
0.0
 11
12.62106
 21
9.96941
 31
0.0
  0
LINE
  5
B06
100
AcDbEntity
  8
0
 62
     0
100
AcDbLine
 10
12.37106
 20
9.542633
 30
0.0
 11
12.62106
 21
9.792633
 31
0.0
  0
LINE
  5
B07
100
AcDbEntity
  8
0
 62
     0
100
AcDbLine
 10
12.383303
 20
9.378099
 30
0.0
 11
12.62106
 21
9.615856
 31
0.0
  0
LINE
  5
B08
100
AcDbEntity
  8
0
 62
     0
100
AcDbLine
 10
12.534734
 20
9.352754
 30
0.0
 11
12.62106
 21
9.43908
 31
0.0
  0
ENDBLK
  5
B09
100
AcDbEntity
  8
0
100
AcDbBlockEnd
  0
BLOCK
  5
B61
100
AcDbEntity
  8
0
100
AcDbBlockBegin
  2
*D39
 70
     1
 10
0.0
 20
0.0
 30
0.0
  3
*D39
  1
AVE_GLOBAL
  0
LINE
  5
B62
100
AcDbEntity
  8
0
  6
BYBLOCK
 62
     0
100
AcDbLine
 10
11.24596
 20
19.477754
 30
0.0
 11
11.24596
 21
25.01022
 31
0.0
  0
LINE
  5
B63
100
AcDbEntity
  8
0
  6
BYBLOCK
 62
     0
100
AcDbLine
 10
16.37116
 20
19.477754
 30
0.0
 11
16.37116
 21
25.01022
 31
0.0
  0
LINE
  5
B64
100
AcDbEntity
  8
0
  6
BYBLOCK
 62
     0
100
AcDbLine
 10
11.74596
 20
24.51022
 30
0.0
 11
12.141893
 21
24.51022
 31
0.0
  0
LINE
  5
B65
100
AcDbEntity
  8
0
  6
BYBLOCK
 62
     0
100
AcDbLine
 10
15.87116
 20
24.51022
 30
0.0
 11
15.475227
 21
24.51022
 31
0.0
  0
SOLID
  5
B66
100
AcDbEntity
  8
0
  6
BYBLOCK
 62
     0
100
AcDbTrace
 10
11.74596
 20
24.593554
 30
0.0
 11
11.74596
 21
24.426887
 31
0.0
 12
11.24596
 22
24.51022
 32
0.0
 13
11.24596
 23
24.51022
 33
0.0
  0
SOLID
  5
B67
100
AcDbEntity
  8
0
  6
BYBLOCK
 62
     0
100
AcDbTrace
 10
15.87116
 20
24.593554
 30
0.0
 11
15.87116
 21
24.426887
 31
0.0
 12
16.37116
 22
24.51022
 32
0.0
 13
16.37116
 23
24.51022
 33
0.0
  0
MTEXT
  5
B68
100
AcDbEntity
  8
0
  6
BYBLOCK
100
AcDbMText
 10
13.80856
 20
24.51022
 30
0.0
 40
0.5
 41
0.0
 71
     5
 72
     1
  1
\A1;{\U+22055{\H1.000000x;\S1/8;}[130]}
  7
ROMANS
  0
POINT
  5
B69
100
AcDbEntity
  8
DEFPOINTS
  6
BYBLOCK
 62
     0
100
AcDbPoint
 10
11.24596
 20
19.227754
 30
0.0
  0
POINT
  5
B6A
100
AcDbEntity
  8
DEFPOINTS
  6
BYBLOCK
 62
     0
100
AcDbPoint
 10
16.37116
 20
19.227754
 30
0.0
  0
POINT
  5
B6B
100
AcDbEntity
  8
DEFPOINTS
  6
BYBLOCK
 62
     0
100
AcDbPoint
 10
16.37116
 20
24.51022
 30
0.0
  0
ENDBLK
  5
B6C
100
AcDbEntity
  8
0
100
AcDbBlockEnd
  0
BLOCK
  5
BFC
100
AcDbEntity
  8
0
100
AcDbBlockBegin
  2
*X42
 70
     1
 10
0.0
 20
0.0
 30
0.0
  3
*X42
  1
AVE_GLOBAL
  0
LINE
  5
BFE
100
AcDbEntity
  8
0
 62
     0
100
AcDbLine
 10
11.80856
 20
13.647284
 30
0.0
 11
11.55856
 21
13.897284
 31
0.0
  0
LINE
  5
BFF
100
AcDbEntity
  8
0
 62
     0
100
AcDbLine
 10
11.80856
 20
13.293731
 30
0.0
 11
11.55856
 21
13.543731
 31
0.0
  0
LINE
  5
C00
100
AcDbEntity
  8
0
 62
     0
100
AcDbLine
 10
11.80856
 20
12.940177
 30
0.0
 11
11.55856
 21
13.190177
 31
0.0
  0
LINE
  5
C01
100
AcDbEntity
  8
0
 62
     0
100
AcDbLine
 10
11.80856
 20
12.586624
 30
0.0
 11
11.55856
 21
12.836624
 31
0.0
  0
LINE
  5
C02
100
AcDbEntity
  8
0
 62
     0
100
AcDbLine
 10
11.80856
 20
12.23307
 30
0.0
 11
11.55856
 21
12.48307
 31
0.0
  0
LINE
  5
C03
100
AcDbEntity
  8
0
 62
     0
100
AcDbLine
 10
11.80856
 20
11.879517
 30
0.0
 11
11.55856
 21
12.129517
 31
0.0
  0
LINE
  5
C04
100
AcDbEntity
  8
0
 62
     0
100
AcDbLine
 10
11.80856
 20
14.000837
 30
0.0
 11
11.55856
 21
14.250837
 31
0.0
  0
LINE
  5
C05
100
AcDbEntity
  8
0
 62
     0
100
AcDbLine
 10
11.80856
 20
14.354391
 30
0.0
 11
11.55856
 21
14.604391
 31
0.0
  0
LINE
  5
C06
100
AcDbEntity
  8
0
 62
     0
100
AcDbLine
 10
11.80856
 20
14.707944
 30
0.0
 11
11.55856
 21
14.957944
 31
0.0
  0
LINE
  5
C07
100
AcDbEntity
  8
0
 62
     0
100
AcDbLine
 10
11.80856
 20
15.061498
 30
0.0
 11
11.55856
 21
15.311498
 31
0.0
  0
LINE
  5
C08
100
AcDbEntity
  8
0
 62
     0
100
AcDbLine
 10
11.80856
 20
15.415051
 30
0.0
 11
11.55856
 21
15.665051
 31
0.0
  0
LINE
  5
C09
100
AcDbEntity
  8
0
 62
     0
100
AcDbLine
 10
11.80856
 20
15.768604
 30
0.0
 11
11.713628
 21
15.863536
 31
0.0
  0
ENDBLK
  5
C0A
100
AcDbEntity
  8
0
100
AcDbBlockEnd
  0
BLOCK
  5
C2D
100
AcDbEntity
  8
0
100
AcDbBlockBegin
  2
*X43
 70
     1
 10
0.0
 20
0.0
 30
0.0
  3
*X43
  1
AVE_GLOBAL
  0
LINE
  5
C2F
100
AcDbEntity
  8
0
 62
     0
100
AcDbLine
 10
11.80856
 20
11.17241
 30
0.0
 11
11.599436
 21
11.381535
 31
0.0
  0
LINE
  5
C30
100
AcDbEntity
  8
0
 62
     0
100
AcDbLine
 10
11.774663
 20
10.852754
 30
0.0
 11
11.604058
 21
11.023359
 31
0.0
  0
LINE
  5
C31
100
AcDbEntity
  8
0
 62
     0
100
AcDbLine
 10
11.80856
 20
11.525964
 30
0.0
 11
11.594814
 21
11.73971
 31
0.0
  0
ENDBLK
  5
C32
100
AcDbEntity
  8
0
100
AcDbBlockEnd
  0
ENDSEC
  0
SECTION
  2
ENTITIES
  0
INSERT
  5
5F
100
AcDbEntity
  8
ASHADE
 62
     1
100
AcDbBlockReference
  2
AVE_RENDER
 10
0.0
 20
0.0
 30
0.0
1001
AVE_RENDER
1002
{
1070
     6
1000
Pref
1070
    30
1070
    20
1070
     1
1070
     0
1000

1070
    10
1070
     1
1070
    30
1040
1.0
1070
     1
1040
0.3
1040
0.7
1040
0.0
1040
10.0
1010
-1.0
1020
-1.0
1030
-1.0
1040
0.3
1070
    49
1070
     0
1070
     0
1010
1.0
1020
1.0
1030
1.0
1040
45.0
1070
     1
1070
     0
1000
WCS
1040
0.0
1002
}
  0
INSERT
  5
60
100
AcDbEntity
  8
ASHADE
 62
     3
100
AcDbBlockReference
  2
AVE_RENDER
 10
0.0
 20
0.0
 30
0.0
1001
AVE_RENDER
1002
{
1070
     0
1000
Full Opt
1070
     0
1070
     1
1070
     1
1070
     1
1070
     0
1070
     0
1070
     0
1070
     1
1070
     1
1040
0.0001
1040
0.0001
1002
}
  0
INSERT
  5
61
100
AcDbEntity
  8
ASHADE
 62
     4
100
AcDbBlockReference
  2
AVE_RENDER
 10
0.0
 20
0.0
 30
0.0
1001
AVE_RENDER
1002
{
1070
     0
1000
Quick Opt
1070
     0
1070
     1
1070
     1
1070
     1
1070
     0
1070
     0
1070
     1
1002
}
  0
INSERT
  5
62
100
AcDbEntity
  8
ASHADE
 62
     5
100
AcDbBlockReference
  2
AVE_RENDER
 10
0.0
 20
0.0
 30
0.0
1001
AVE_RENDER
1002
{
1070
     1
1000
Scanl Opt
1070
     2
1070
     0
1070
     2
1040
2.0
1040
4.0
1070
     0
1070
     1
1070
     0
1040
0.03
1002
}
  0
INSERT
  5
63
100
AcDbEntity
  8
ASHADE
 62
     6
100
AcDbBlockReference
  2
AVE_RENDER
 10
0.0
 20
0.0
 30
0.0
1001
AVE_RENDER
1002
{
1070
     2
1000
Raytr Opt
1070
     2
1070
     0
1070
     2
1040
2.0
1040
4.0
1070
     0
1070
     1
1070
     1
1040
0.03
1070
     3
1040
0.03
1002
}
  0
INSERT
  5
64
100
AcDbEntity
  8
ASHADE
 62
     7
100
AcDbBlockReference
  2
AVE_RENDER
 10
0.0
 20
0.0
 30
0.0
1001
AVE_RENDER
1002
{
1070
     0
1000
RFile Opt
1070
     5
1070
   640
1070
   480
1070
 10000
1070
     3
1070
    32
1070
    24
1070
     0
1070
     0
1070
     0
1070
     1
1070
     0
1070
     0
1070
     0
1002
}
  0
INSERT
  5
65
100
AcDbEntity
  8
ASHADE
 62
     8
100
AcDbBlockReference
  2
AVE_RENDER
 10
0.0
 20
0.0
 30
0.0
1001
AVE_RENDER
1002
{
1070
     0
1000
Fog Opt
1070
     0
1070
     0
1040
0.0
1040
1.0
1040
0.0
1040
1.0
1010
0.5
1020
0.5
1030
0.5
1002
}
  0
INSERT
  5
66
100
AcDbEntity
  8
ASHADE
 62
     9
100
AcDbBlockReference
  2
AVE_RENDER
 10
0.0
 20
0.0
 30
0.0
1001
AVE_RENDER
1002
{
1070
     0
1000
BG Opt
1070
     0
1070
     1
1010
0.0
1020
0.0
1030
0.0
1010
1.0
1020
0.0
1030
0.0
1010
0.0
1020
1.0
1030
0.0
1010
0.0
1020
0.0
1030
1.0
1040
0.5
1040
0.33
1040
0.0
1000

1070
     1
1000

1070
     1
1070
     1
1040
1.0
1040
1.0
1040
0.0
1040
0.0
1070
     0
1002
}
  0
INSERT
  5
6D
100
AcDbEntity
  8
ASHADE
 62
     1
100
AcDbBlockReference
  2
AVE_GLOBAL
 10
0.0
 20
0.0
 30
0.0
1001
AVE_MATERIAL
1002
{
1000
*GLOBAL*
1000
1
1000
Global finish.
1002
{
1002
}
1002
{
1070
    63
1002
{
1002
{
1010
-1.0
1020
-1.0
1030
-1.0
1002
}
1040
0.1
1000

1040
0.0
1002
{
1002
}
1040
0.0
1002
{
1002
}
1040
0.0
1002
}
1002
{
1002
{
1010
-1.0
1020
-1.0
1030
-1.0
1002
}
1040
0.7
1000

1040
0.0
1002
{
1002
}
1040
0.0
1002
{
1002
}
1040
0.0
1002
}
1002
{
1002
{
1010
-1.0
1020
-1.0
1030
-1.0
1002
}
1040
0.2
1000

1040
0.0
1002
{
1002
}
1040
0.0
1002
{
1002
}
1040
0.0
1002
}
1002
{
1070
     0
1002
{
1070
     1
1002
{
1040
1.0
1040
1.0
1000

1040
0.0
1002
{
1002
}
1040
0.0
1002
{
1002
}
1040
0.0
1002
}
1002
}
1040
1.0
1040
0.0
1040
0.0
1002
}
1002
{
1040
1.0
1040
1.0
1000

1040
0.0
1002
{
1002
}
1040
0.0
1002
{
1002
}
1040
0.0
1002
}
1002
{
1040
0.5
1040
1.0
1000

1040
0.0
1002
{
1002
}
1040
0.0
1002
{
1002
}
1040
0.0
1002
}
1002
{
1070
     0
1040
0.0
1002
{
1002
}
1040
1.0
1002
{
1002
}
1040
0.0
1002
}
1002
{
1040
0.0
1002
{
1002
{
1010
0.0
1020
0.0
1030
0.0
1002
}
1040
1.0
1000

1040
0.0
1002
{
1002
}
1040
0.0
1002
{
1002
}
1040
0.0
1002
}
1002
}
1002
{
1002
{
1070
     1
1002
{
1040
0.0
1040
1.0
1000

1040
0.0
1002
{
1002
}
1040
0.0
1002
{
1002
}
1040
0.0
1002
}
1002
}
1040
0.0
1002
{
1002
}
1010
1.0
1020
0.0
1030
0.0
1010
0.0
1020
1.0
1030
0.0
1010
0.0
1020
0.0
1030
1.0
1070
     0
1002
}
1002
{
1002
{
1040
1.0
1040
1.0
1002
{
1070
     1
1002
{
1040
1.0
1040
1.0
1000

1040
0.0
1002
{
1002
}
1040
0.0
1002
{
1002
}
1040
0.0
1002
}
1002
}
1002
}
1070
     0
1040
0.0
1002
{
1002
}
1002
}
1002
{
1002
}
1002
}
1002
{
1071
        3
1070
     3
1070
     0
1002
{
1070
     2
1070
     0
1070
     0
1040
0.0
1002
}
1070
     0
1070
     2
1002
{
1002
}
1002
}
1002
{
1040
8030.0
1040
190.300003
1040
0.305
1040
228.0
1040
545.0
1040
14.0
1040
17.4
1040
0.456
1002
}
1002
}
  0
LINE
  5
686
100
AcDbEntity
  8
OBJECTS
100
AcDbLine
 10
11.55856
 20
17.852754
 30
0.0
 11
11.55856
 21
11.852754
 31
0.0
1001
ACAD
1000
ASC_BOUNDS
1002
{
1070
    19
1002
}
  0
LINE
  5
687
100
AcDbEntity
  8
OBJECTS
100
AcDbLine
 10
16.05856
 20
17.852754
 30
0.0
 11
16.05856
 21
11.852754
 31
0.0
  0
LINE
  5
68C
100
AcDbEntity
  8
OBJECTS
100
AcDbLine
 10
11.24596
 20
17.852754
 30
0.0
 11
16.37116
 21
17.852754
 31
0.0
  0
LINE
  5
68D
100
AcDbEntity
  8
OBJECTS
100
AcDbLine
 10
13.24606
 20
22.352754
 30
0.0
 11
14.37106
 21
22.352754
 31
0.0
  0
LINE
  5
68E
100
AcDbEntity
  8
OBJECTS
  6
CENTER
100
AcDbLine
 10
13.80856
 20
8.332761
 30
0.0
 11
13.80856
 21
23.422645
 31
0.0
  0
ARC
  5
691
100
AcDbEntity
  8
OBJECTS
100
AcDbCircle
 10
13.80856
 20
19.227754
 30
0.0
 40
2.25
100
AcDbArc
 50
12.613687
 51
71.034425
  0
LINE
  5
692
100
AcDbEntity
  8
OBJECTS
100
AcDbLine
 10
16.37116
 20
17.852754
 30
0.0
 11
16.37116
 21
18.165254
 31
0.0
  0
LINE
  5
693
100
AcDbEntity
  8
OBJECTS
100
AcDbLine
 10
11.24596
 20
17.852754
 30
0.0
 11
11.24596
 21
18.165254
 31
0.0
  0
ARC
  5
69B
100
AcDbEntity
  8
OBJECTS
100
AcDbCircle
 10
16.12116
 20
19.227754
 30
0.0
 40
0.25
100
AcDbArc
 50
0.0
 51
66.517346
  0
ARC
  5
69C
100
AcDbEntity
  8
OBJECTS
100
AcDbCircle
 10
11.49596
 20
19.227754
 30
0.0
 40
0.25
100
AcDbArc
 50
113.482654
 51
180.0
  0
ARC
  5
69E
100
AcDbEntity
  8
OBJECTS
100
AcDbCircle
 10
11.246915
 20
19.800992
 30
0.0
 40
0.375
100
AcDbArc
 50
293.482654
 51
347.386313
  0
ARC
  5
69F
100
AcDbEntity
  8
OBJECTS
100
AcDbCircle
 10
16.370205
 20
19.800992
 30
0.0
 40
0.375
100
AcDbArc
 50
192.613687
 51
246.517346
  0
LINE
  5
6AA
100
AcDbEntity
  8
OBJECTS
100
AcDbLine
 10
14.37106
 20
21.592039
 30
0.0
 11
14.37106
 21
22.352754
 31
0.0
  0
LINE
  5
6AB
100
AcDbEntity
  8
OBJECTS
100
AcDbLine
 10
13.24606
 20
21.592039
 30
0.0
 11
13.24606
 21
22.352754
 31
0.0
  0
ARC
  5
6AC
100
AcDbEntity
  8
OBJECTS
100
AcDbCircle
 10
14.62106
 20
21.592039
 30
0.0
 40
0.25
100
AcDbArc
 50
180.0
 51
251.034425
  0
ARC
  5
6AD
100
AcDbEntity
  8
OBJECTS
100
AcDbCircle
 10
12.99606
 20
21.592039
 30
0.0
 40
0.25
100
AcDbArc
 50
288.965575
 51
0.0
  0
ARC
  5
6AE
100
AcDbEntity
  8
OBJECTS
100
AcDbCircle
 10
13.80856
 20
19.227754
 30
0.0
 40
2.25
100
AcDbArc
 50
108.965575
 51
167.386313
  0
LINE
  5
6AF
100
AcDbEntity
  8
OBJECTS
100
AcDbLine
 10
10.99596
 20
11.852754
 30
0.0
 11
11.576509
 21
11.852754
 31
0.0
1001
ACAD
1000
ASC_BOUNDS
1002
{
1070
    19
1005
0
1005
0
1002
}
  0
LINE
  5
6B0
100
AcDbEntity
  8
OBJECTS
100
AcDbLine
 10
12.43356
 20
9.352754
 30
0.0
 11
15.18356
 21
9.352754
 31
0.0
1001
ACAD
1000
ASC_BOUNDS
1002
{
1070
    19
1002
}
  0
LINE
  5
6C1
100
AcDbEntity
  8
OBJECTS
100
AcDbLine
 10
11.74606
 20
10.227754
 30
0.0
 11
11.87106
 21
10.227754
 31
0.0
1001
ACAD
1000
ASC_BOUNDS
1002
{
1070
    19
1002
}
  0
LINE
  5
6C2
100
AcDbEntity
  8
OBJECTS
100
AcDbLine
 10
10.99596
 20
11.852754
 30
0.0
 11
10.99596
 21
10.665254
 31
0.0
1001
ACAD
1000
ASC_BOUNDS
1002
{
1070
    19
1002
}
  0
LINE
  5
6C4
100
AcDbEntity
  8
OBJECTS
100
AcDbLine
 10
10.99596
 20
10.665254
 30
0.0
 11
11.249982
 21
10.665254
 31
0.0
1001
ACAD
1000
ASC_BOUNDS
1002
{
1070
    19
1005
0
1005
0
1002
}
  0
LINE
  5
6C5
100
AcDbEntity
  8
OBJECTS
100
AcDbLine
 10
16.74616
 20
11.227754
 30
0.0
 11
16.74616
 21
10.665254
 31
0.0
  0
LINE
  5
6D5
100
AcDbEntity
  8
OBJECTS
100
AcDbLine
 10
16.367138
 20
10.665254
 30
0.0
 11
16.74616
 21
10.665254
 31
0.0
  0
LINE
  5
6D6
100
AcDbEntity
  8
OBJECTS
100
AcDbLine
 10
16.62116
 20
11.852754
 30
0.0
 11
16.62116
 21
11.227754
 31
0.0
  0
LINE
  5
6D7
100
AcDbEntity
  8
OBJECTS
100
AcDbLine
 10
16.62116
 20
11.227754
 30
0.0
 11
16.74616
 21
11.227754
 31
0.0
  0
LINE
  5
6D9
100
AcDbEntity
  8
OBJECTS
100
AcDbLine
 10
12.37106
 20
9.415254
 30
0.0
 11
12.37106
 21
9.790254
 31
0.0
  0
ARC
  5
6DB
100
AcDbEntity
  8
OBJECTS
100
AcDbCircle
 10
15.18356
 20
9.415254
 30
0.0
 40
0.0625
100
AcDbArc
 50
270.0
 51
0.0
  0
ARC
  5
6DC
100
AcDbEntity
  8
OBJECTS
100
AcDbCircle
 10
12.43356
 20
9.415254
 30
0.0
 40
0.0625
100
AcDbArc
 50
180.0
 51
270.0
1001
ACAD
1000
ASC_BOUNDS
1002
{
1070
    19
1002
}
  0
LINE
  5
6DF
100
AcDbEntity
  8
OBJECTS
100
AcDbLine
 10
11.99606
 20
10.040254
 30
0.0
 11
11.99606
 21
10.102754
 31
0.0
1001
ACAD
1000
ASC_BOUNDS
1002
{
1070
    19
1002
}
  0
ARC
  5
6E4
100
AcDbEntity
  8
OBJECTS
100
AcDbCircle
 10
11.74606
 20
10.727754
 30
0.0
 40
0.5
100
AcDbArc
 50
187.180756
 51
270.0
1001
ACAD
1000
ASC_BOUNDS
1002
{
1070
    19
1002
}
  0
LINE
  5
6E6
100
AcDbEntity
  8
OBJECTS
100
AcDbLine
 10
12.12106
 20
9.915254
 30
0.0
 11
12.24606
 21
9.915254
 31
0.0
1001
ACAD
1000
ASC_BOUNDS
1002
{
1070
    19
1002
}
  0
ARC
  5
6E7
100
AcDbEntity
  8
OBJECTS
100
AcDbCircle
 10
12.24606
 20
9.790254
 30
0.0
 40
0.125
100
AcDbArc
 50
360.0
 51
90.0
1001
ACAD
1000
ASC_BOUNDS
1002
{
1070
    19
1002
}
  0
ARC
  5
6E8
100
AcDbEntity
  8
OBJECTS
100
AcDbCircle
 10
12.12106
 20
10.040254
 30
0.0
 40
0.125
100
AcDbArc
 50
180.0
 51
270.0
1001
ACAD
1000
ASC_BOUNDS
1002
{
1070
    19
1002
}
  0
ARC
  5
6E9
100
AcDbEntity
  8
OBJECTS
100
AcDbCircle
 10
11.87106
 20
10.102754
 30
0.0
 40
0.125
100
AcDbArc
 50
0.0
 51
90.0
1001
ACAD
1000
ASC_BOUNDS
1002
{
1070
    19
1002
}
  0
ARC
  5
6EA
100
AcDbEntity
  8
OBJECTS
100
AcDbCircle
 10
15.87106
 20
10.727754
 30
0.0
 40
0.5
100
AcDbArc
 50
270.0
 51
352.819244
  0
LINE
  5
6EB
100
AcDbEntity
  8
OBJECTS
100
AcDbLine
 10
15.24606
 20
9.415254
 30
0.0
 11
15.24606
 21
9.790254
 31
0.0
  0
ARC
  5
6EC
100
AcDbEntity
  8
OBJECTS
100
AcDbCircle
 10
15.37106
 20
9.790254
 30
0.0
 40
0.125
100
AcDbArc
 50
90.0
 51
180.0
  0
ARC
  5
6ED
100
AcDbEntity
  8
OBJECTS
100
AcDbCircle
 10
15.74606
 20
10.102754
 30
0.0
 40
0.125
100
AcDbArc
 50
90.0
 51
180.0
  0
ARC
  5
6EE
100
AcDbEntity
  8
OBJECTS
100
AcDbCircle
 10
15.49606
 20
10.040254
 30
0.0
 40
0.125
100
AcDbArc
 50
270.0
 51
0.0
  0
LINE
  5
6EF
100
AcDbEntity
  8
OBJECTS
100
AcDbLine
 10
15.62106
 20
10.040254
 30
0.0
 11
15.62106
 21
10.102754
 31
0.0
  0
LINE
  5
6F0
100
AcDbEntity
  8
OBJECTS
100
AcDbLine
 10
15.49606
 20
9.915254
 30
0.0
 11
15.37106
 21
9.915254
 31
0.0
  0
LINE
  5
6F1
100
AcDbEntity
  8
OBJECTS
100
AcDbLine
 10
15.87106
 20
10.227754
 30
0.0
 11
15.74606
 21
10.227754
 31
0.0
  0
LINE
  5
6F3
100
AcDbEntity
  8
OBJECTS
100
AcDbLine
 10
16.62116
 20
11.219504
 30
0.0
 11
16.92116
 21
11.219504
 31
0.0
  0
LINE
  5
6F4
100
AcDbEntity
  8
OBJECTS
100
AcDbLine
 10
16.62116
 20
10.673504
 30
0.0
 11
16.92116
 21
10.673504
 31
0.0
  0
LINE
  5
6F5
100
AcDbEntity
  8
OBJECTS
100
AcDbLine
 10
16.92116
 20
11.323004
 30
0.0
 11
17.24966
 21
11.323004
 31
0.0
  0
LINE
  5
6F6
100
AcDbEntity
  8
OBJECTS
100
AcDbLine
 10
16.92116
 20
10.570004
 30
0.0
 11
18.33116
 21
10.570004
 31
0.0
  0
LINE
  5
6F7
100
AcDbEntity
  8
OBJECTS
100
AcDbLine
 10
16.92116
 20
11.323004
 30
0.0
 11
16.92116
 21
10.570004
 31
0.0
  0
LINE
  5
6F8
100
AcDbEntity
  8
OBJECTS
100
AcDbLine
 10
16.85866
 20
11.219504
 30
0.0
 11
16.85866
 21
10.673504
 31
0.0
  0
LINE
  5
6F9
100
AcDbEntity
  8
OBJECTS
100
AcDbLine
 10
16.79616
 20
11.157004
 30
0.0
 11
16.79616
 21
10.736004
 31
0.0
  0
LINE
  5
6FA
100
AcDbEntity
  8
OBJECTS
100
AcDbLine
 10
16.73366
 20
11.219504
 30
0.0
 11
16.73366
 21
10.673504
 31
0.0
  0
LINE
  5
6FF
100
AcDbEntity
  8
OBJECTS
100
AcDbLine
 10
18.33116
 20
11.323004
 30
0.0
 11
18.33116
 21
10.570004
 31
0.0
  0
LINE
  5
700
100
AcDbEntity
  8
OBJECTS
100
AcDbLine
 10
17.06816
 20
11.323004
 30
0.0
 11
17.06816
 21
10.570004
 31
0.0
  0
LINE
  5
701
100
AcDbEntity
  8
OBJECTS
100
AcDbLine
 10
18.18416
 20
11.323004
 30
0.0
 11
18.18416
 21
10.570004
 31
0.0
  0
LINE
  5
704
100
AcDbEntity
  8
OBJECTS
100
AcDbLine
 10
17.06816
 20
11.236504
 30
0.0
 11
18.18416
 21
11.236504
 31
0.0
  0
LINE
  5
705
100
AcDbEntity
  8
OBJECTS
100
AcDbLine
 10
17.06816
 20
10.656504
 30
0.0
 11
18.18416
 21
10.656504
 31
0.0
  0
LINE
  5
706
100
AcDbEntity
  8
OBJECTS
  6
CENTER
100
AcDbLine
 10
17.62616
 20
11.576794
 30
0.0
 11
17.62616
 21
13.532904
 31
0.0
  0
LINE
  5
707
100
AcDbEntity
  8
OBJECTS
100
AcDbLine
 10
17.24966
 20
11.323004
 30
0.0
 11
17.24966
 21
11.645004
 31
0.0
  0
LINE
  5
708
100
AcDbEntity
  8
OBJECTS
100
AcDbLine
 10
17.33616
 20
11.236504
 30
0.0
 11
17.33616
 21
11.498004
 31
0.0
  0
LINE
  5
709
100
AcDbEntity
  8
OBJECTS
100
AcDbLine
 10
17.24966
 20
11.498004
 30
0.0
 11
18.00266
 21
11.498004
 31
0.0
  0
LINE
  5
70A
100
AcDbEntity
  8
OBJECTS
100
AcDbLine
 10
17.24966
 20
11.645004
 30
0.0
 11
18.00266
 21
11.645004
 31
0.0
  0
LINE
  5
70B
100
AcDbEntity
  8
OBJECTS
100
AcDbLine
 10
17.91616
 20
11.236504
 30
0.0
 11
17.91616
 21
11.498004
 31
0.0
  0
LINE
  5
70C
100
AcDbEntity
  8
OBJECTS
100
AcDbLine
 10
18.00266
 20
11.323004
 30
0.0
 11
18.00266
 21
11.645004
 31
0.0
  0
LINE
  5
70E
100
AcDbEntity
  8
OBJECTS
100
AcDbLine
 10
18.00266
 20
11.323004
 30
0.0
 11
18.33116
 21
11.323004
 31
0.0
  0
LINE
  5
70F
100
AcDbEntity
  8
OBJECTS
100
AcDbLine
 10
17.24966
 20
11.323004
 30
0.0
 11
17.33616
 21
11.236504
 31
0.0
  0
LINE
  5
710
100
AcDbEntity
  8
OBJECTS
100
AcDbLine
 10
17.91616
 20
11.236504
 30
0.0
 11
18.00266
 21
11.323004
 31
0.0
  0
LINE
  5
711
100
AcDbEntity
  8
OBJECTS
100
AcDbLine
 10
18.33116
 20
11.219504
 30
0.0
 11
18.63116
 21
11.219504
 31
0.0
  0
LINE
  5
712
100
AcDbEntity
  8
OBJECTS
100
AcDbLine
 10
18.56866
 20
11.219504
 30
0.0
 11
18.56866
 21
10.673504
 31
0.0
  0
LINE
  5
713
100
AcDbEntity
  8
OBJECTS
100
AcDbLine
 10
18.44366
 20
11.219504
 30
0.0
 11
18.44366
 21
10.673504
 31
0.0
  0
LINE
  5
714
100
AcDbEntity
  8
OBJECTS
100
AcDbLine
 10
18.38116
 20
11.157004
 30
0.0
 11
18.38116
 21
10.736004
 31
0.0
  0
LINE
  5
715
100
AcDbEntity
  8
OBJECTS
100
AcDbLine
 10
18.50616
 20
11.157004
 30
0.0
 11
18.50616
 21
10.736004
 31
0.0
  0
LINE
  5
716
100
AcDbEntity
  8
OBJECTS
100
AcDbLine
 10
18.33116
 20
10.673504
 30
0.0
 11
18.63116
 21
10.673504
 31
0.0
  0
LINE
  5
717
100
AcDbEntity
  8
OBJECTS
100
AcDbLine
 10
17.35316
 20
11.645004
 30
0.0
 11
17.35316
 21
11.945004
 31
0.0
  0
LINE
  5
718
100
AcDbEntity
  8
OBJECTS
100
AcDbLine
 10
17.35316
 20
11.882504
 30
0.0
 11
17.89916
 21
11.882504
 31
0.0
  0
LINE
  5
719
100
AcDbEntity
  8
OBJECTS
100
AcDbLine
 10
17.35316
 20
11.757504
 30
0.0
 11
17.89916
 21
11.757504
 31
0.0
  0
LINE
  5
71A
100
AcDbEntity
  8
OBJECTS
100
AcDbLine
 10
17.41566
 20
11.695004
 30
0.0
 11
17.83666
 21
11.695004
 31
0.0
  0
LINE
  5
71B
100
AcDbEntity
  8
OBJECTS
100
AcDbLine
 10
17.41566
 20
11.820004
 30
0.0
 11
17.83666
 21
11.820004
 31
0.0
  0
LINE
  5
71C
100
AcDbEntity
  8
OBJECTS
100
AcDbLine
 10
17.89916
 20
11.645004
 30
0.0
 11
17.89916
 21
11.945004
 31
0.0
  0
LINE
  5
71D
100
AcDbEntity
  8
OBJECTS
100
AcDbLine
 10
18.63116
 20
11.241543
 30
0.0
 11
18.63116
 21
10.651464
 31
0.0
  0
LINE
  5
71E
100
AcDbEntity
  8
OBJECTS
100
AcDbLine
 10
18.87516
 20
11.241543
 30
0.0
 11
18.87516
 21
10.651464
 31
0.0
  0
LINE
  5
71F
100
AcDbEntity
  8
OBJECTS
100
AcDbLine
 10
18.66316
 20
11.268504
 30
0.0
 11
18.84316
 21
11.268504
 31
0.0
  0
LINE
  5
720
100
AcDbEntity
  8
OBJECTS
100
AcDbLine
 10
18.66316
 20
10.624504
 30
0.0
 11
18.84316
 21
10.624504
 31
0.0
  0
LINE
  5
721
100
AcDbEntity
  8
OBJECTS
100
AcDbLine
 10
18.66316
 20
11.096504
 30
0.0
 11
18.84316
 21
11.096504
 31
0.0
  0
LINE
  5
722
100
AcDbEntity
  8
OBJECTS
100
AcDbLine
 10
18.66316
 20
10.796504
 30
0.0
 11
18.84316
 21
10.796504
 31
0.0
  0
ARC
  5
726
100
AcDbEntity
  8
OBJECTS
100
AcDbCircle
 10
18.998723
 20
10.946504
 30
0.0
 40
0.367562
100
AcDbArc
 50
155.91485
 51
204.08515
  0
ARC
  5
727
100
AcDbEntity
  8
OBJECTS
100
AcDbCircle
 10
18.507598
 20
10.946504
 30
0.0
 40
0.367562
100
AcDbArc
 50
335.91485
 51
24.08515
  0
ARC
  5
72B
100
AcDbEntity
  8
OBJECTS
100
AcDbCircle
 10
18.743598
 20
10.710504
 30
0.0
 40
0.131562
100
AcDbArc
 50
319.180234
 51
40.819766
  0
ARC
  5
72C
100
AcDbEntity
  8
OBJECTS
100
AcDbCircle
 10
18.743598
 20
11.182504
 30
0.0
 40
0.131562
100
AcDbArc
 50
319.180234
 51
40.819766
  0
ARC
  5
72D
100
AcDbEntity
  8
OBJECTS
100
AcDbCircle
 10
18.762723
 20
11.182504
 30
0.0
 40
0.131562
100
AcDbArc
 50
139.180234
 51
220.819766
  0
ARC
  5
72E
100
AcDbEntity
  8
OBJECTS
100
AcDbCircle
 10
18.762723
 20
10.710504
 30
0.0
 40
0.131562
100
AcDbArc
 50
139.180234
 51
220.819766
  0
LINE
  5
72F
100
AcDbEntity
  8
OBJECTS
100
AcDbLine
 10
18.84316
 20
11.268504
 30
0.0
 11
18.87516
 21
11.241543
 31
0.0
  0
LINE
  5
730
100
AcDbEntity
  8
OBJECTS
100
AcDbLine
 10
18.66316
 20
11.268504
 30
0.0
 11
18.63116
 21
11.241543
 31
0.0
  0
LINE
  5
731
100
AcDbEntity
  8
OBJECTS
100
AcDbLine
 10
18.84316
 20
10.624504
 30
0.0
 11
18.87516
 21
10.651464
 31
0.0
  0
LINE
  5
732
100
AcDbEntity
  8
OBJECTS
100
AcDbLine
 10
18.66316
 20
10.624504
 30
0.0
 11
18.63116
 21
10.651464
 31
0.0
  0
LINE
  5
736
100
AcDbEntity
  8
OBJECTS
100
AcDbLine
 10
18.87516
 20
11.106504
 30
0.0
 11
19.08516
 21
11.106504
 31
0.0
  0
LINE
  5
737
100
AcDbEntity
  8
OBJECTS
100
AcDbLine
 10
18.87516
 20
10.786504
 30
0.0
 11
19.08516
 21
10.786504
 31
0.0
  0
LINE
  5
738
100
AcDbEntity
  8
OBJECTS
100
AcDbLine
 10
19.08516
 20
11.146504
 30
0.0
 11
19.08516
 21
10.746504
 31
0.0
  0
LINE
  5
739
100
AcDbEntity
  8
OBJECTS
100
AcDbLine
 10
19.57516
 20
11.146504
 30
0.0
 11
19.57516
 21
10.746504
 31
0.0
  0
LINE
  5
73A
100
AcDbEntity
  8
OBJECTS
100
AcDbLine
 10
19.08516
 20
11.146504
 30
0.0
 11
19.57516
 21
11.146504
 31
0.0
  0
LINE
  5
73B
100
AcDbEntity
  8
OBJECTS
100
AcDbLine
 10
19.08516
 20
10.746504
 30
0.0
 11
19.57516
 21
10.746504
 31
0.0
  0
LINE
  5
73C
100
AcDbEntity
  8
OBJECTS
100
AcDbLine
 10
17.24616
 20
11.945004
 30
0.0
 11
18.00616
 21
11.945004
 31
0.0
  0
LINE
  5
73D
100
AcDbEntity
  8
OBJECTS
100
AcDbLine
 10
17.24616
 20
12.706004
 30
0.0
 11
18.00616
 21
12.706004
 31
0.0
  0
LINE
  5
73E
100
AcDbEntity
  8
OBJECTS
100
AcDbLine
 10
18.00616
 20
11.945004
 30
0.0
 11
18.00616
 21
12.706004
 31
0.0
  0
LINE
  5
73F
100
AcDbEntity
  8
OBJECTS
100
AcDbLine
 10
17.24616
 20
11.945004
 30
0.0
 11
17.24616
 21
12.706004
 31
0.0
  0
ARC
  5
743
100
AcDbEntity
  8
OBJECTS
100
AcDbCircle
 10
17.62616
 20
12.249462
 30
0.0
 40
0.456541
100
AcDbArc
 50
33.659558
 51
146.340442
  0
ARC
  5
744
100
AcDbEntity
  8
OBJECTS
100
AcDbCircle
 10
17.62616
 20
12.401545
 30
0.0
 40
0.456541
100
AcDbArc
 50
213.659558
 51
326.340442
  0
LINE
  5
745
100
AcDbEntity
  8
OBJECTS
100
AcDbLine
 10
18.08666
 20
12.682504
 30
0.0
 11
18.25466
 21
12.682504
 31
0.0
  0
LINE
  5
746
100
AcDbEntity
  8
OBJECTS
100
AcDbLine
 10
18.08666
 20
11.968504
 30
0.0
 11
18.25466
 21
11.968504
 31
0.0
  0
LINE
  5
747
100
AcDbEntity
  8
OBJECTS
100
AcDbLine
 10
18.08666
 20
12.505504
 30
0.0
 11
18.25466
 21
12.505504
 31
0.0
  0
LINE
  5
748
100
AcDbEntity
  8
OBJECTS
100
AcDbLine
 10
18.08666
 20
12.145504
 30
0.0
 11
18.25466
 21
12.145504
 31
0.0
  0
LINE
  5
749
100
AcDbEntity
  8
OBJECTS
100
AcDbLine
 10
18.06866
 20
11.992662
 30
0.0
 11
18.06866
 21
12.658345
 31
0.0
  0
LINE
  5
74A
100
AcDbEntity
  8
OBJECTS
100
AcDbLine
 10
18.00616
 20
12.637504
 30
0.0
 11
18.06866
 21
12.637504
 31
0.0
  0
LINE
  5
74B
100
AcDbEntity
  8
OBJECTS
100
AcDbLine
 10
18.00616
 20
12.013504
 30
0.0
 11
18.06866
 21
12.013504
 31
0.0
  0
LINE
  5
74C
100
AcDbEntity
  8
OBJECTS
100
AcDbLine
 10
18.27266
 20
11.992662
 30
0.0
 11
18.27266
 21
12.658345
 31
0.0
  0
LINE
  5
74D
100
AcDbEntity
  8
OBJECTS
100
AcDbLine
 10
18.27266
 20
12.637504
 30
0.0
 11
18.41416
 21
12.637504
 31
0.0
  0
LINE
  5
74E
100
AcDbEntity
  8
OBJECTS
100
AcDbLine
 10
18.27266
 20
12.013504
 30
0.0
 11
18.41416
 21
12.013504
 31
0.0
  0
LINE
  5
74F
100
AcDbEntity
  8
OBJECTS
100
AcDbLine
 10
18.47666
 20
12.076004
 30
0.0
 11
18.47666
 21
12.575004
 31
0.0
  0
LINE
  5
750
100
AcDbEntity
  8
OBJECTS
100
AcDbLine
 10
18.47666
 20
12.512504
 30
0.0
 11
18.55966
 21
12.512504
 31
0.0
  0
LINE
  5
751
100
AcDbEntity
  8
OBJECTS
100
AcDbLine
 10
18.47666
 20
12.138504
 30
0.0
 11
18.55966
 21
12.138504
 31
0.0
  0
LINE
  5
752
100
AcDbEntity
  8
OBJECTS
100
AcDbLine
 10
18.55966
 20
12.093232
 30
0.0
 11
18.55966
 21
12.557775
 31
0.0
  0
LINE
  5
754
100
AcDbEntity
  8
OBJECTS
100
AcDbLine
 10
18.68366
 20
12.093232
 30
0.0
 11
18.68366
 21
12.557775
 31
0.0
  0
LINE
  5
757
100
AcDbEntity
  8
OBJECTS
100
AcDbLine
 10
18.56866
 20
12.569504
 30
0.0
 11
18.67466
 21
12.569504
 31
0.0
  0
LINE
  5
758
100
AcDbEntity
  8
OBJECTS
100
AcDbLine
 10
18.56866
 20
12.081504
 30
0.0
 11
18.67466
 21
12.081504
 31
0.0
  0
LINE
  5
759
100
AcDbEntity
  8
OBJECTS
100
AcDbLine
 10
18.68366
 20
12.449504
 30
0.0
 11
18.94816
 21
12.449504
 31
0.0
  0
LINE
  5
75A
100
AcDbEntity
  8
OBJECTS
100
AcDbLine
 10
18.68366
 20
12.201504
 30
0.0
 11
18.94816
 21
12.201504
 31
0.0
  0
LINE
  5
75B
100
AcDbEntity
  8
OBJECTS
100
AcDbLine
 10
18.94816
 20
11.825504
 30
0.0
 11
18.94816
 21
12.825504
 31
0.0
1001
ACAD
1000
ASC_BOUNDS
1002
{
1070
    19
1005
7C9
1002
}
  0
LINE
  5
75C
100
AcDbEntity
  8
OBJECTS
100
AcDbLine
 10
18.94816
 20
11.825504
 30
0.0
 11
19.26816
 21
11.825504
 31
0.0
1001
ACAD
1000
ASC_BOUNDS
1002
{
1070
    19
1005
7C9
1002
}
  0
LINE
  5
75D
100
AcDbEntity
  8
OBJECTS
100
AcDbLine
 10
18.94816
 20
12.825504
 30
0.0
 11
19.26816
 21
12.825504
 31
0.0
1001
ACAD
1000
ASC_BOUNDS
1002
{
1070
    19
1005
7C9
1002
}
  0
LINE
  5
75E
100
AcDbEntity
  8
OBJECTS
100
AcDbLine
 10
19.26816
 20
11.825504
 30
0.0
 11
19.26816
 21
12.825504
 31
0.0
1001
ACAD
1000
ASC_BOUNDS
1002
{
1070
    19
1005
7C9
1002
}
  0
ARC
  5
75F
100
AcDbEntity
  8
OBJECTS
100
AcDbCircle
 10
18.41416
 20
12.575004
 30
0.0
 40
0.0625
100
AcDbArc
 50
360.0
 51
90.0
  0
ARC
  5
760
100
AcDbEntity
  8
OBJECTS
100
AcDbCircle
 10
18.41416
 20
12.076004
 30
0.0
 40
0.0625
100
AcDbArc
 50
270.0
 51
360.0
  0
LINE
  5
761
100
AcDbEntity
  8
OBJECTS
100
AcDbLine
 10
18.55966
 20
12.450504
 30
0.0
 11
18.68366
 21
12.450504
 31
0.0
  0
LINE
  5
762
100
AcDbEntity
  8
OBJECTS
100
AcDbLine
 10
18.55966
 20
12.200504
 30
0.0
 11
18.68366
 21
12.200504
 31
0.0
  0
ARC
  5
766
100
AcDbEntity
  8
OBJECTS
100
AcDbCircle
 10
18.97766
 20
12.325504
 30
0.0
 40
0.909
100
AcDbArc
 50
168.578814
 51
191.421186
  0
ARC
  5
767
100
AcDbEntity
  8
OBJECTS
100
AcDbCircle
 10
17.36366
 20
12.325504
 30
0.0
 40
0.909
100
AcDbArc
 50
348.578814
 51
11.421186
  0
ARC
  5
76A
100
AcDbEntity
  8
OBJECTS
100
AcDbCircle
 10
18.295223
 20
12.594004
 30
0.0
 40
0.226563
100
AcDbArc
 50
157.006874
 51
202.993126
  0
ARC
  5
76B
100
AcDbEntity
  8
OBJECTS
100
AcDbCircle
 10
18.046098
 20
12.594004
 30
0.0
 40
0.226563
100
AcDbArc
 50
337.006874
 51
22.993126
  0
ARC
  5
76C
100
AcDbEntity
  8
OBJECTS
100
AcDbCircle
 10
18.046098
 20
12.057004
 30
0.0
 40
0.226563
100
AcDbArc
 50
337.006874
 51
22.993126
  0
ARC
  5
76D
100
AcDbEntity
  8
OBJECTS
100
AcDbCircle
 10
18.295223
 20
12.057004
 30
0.0
 40
0.226563
100
AcDbArc
 50
157.006874
 51
202.993126
  0
LINE
  5
76E
100
AcDbEntity
  8
OBJECTS
100
AcDbLine
 10
18.25466
 20
12.682504
 30
0.0
 11
18.27266
 21
12.658345
 31
0.0
  0
LINE
  5
76F
100
AcDbEntity
  8
OBJECTS
100
AcDbLine
 10
18.08666
 20
12.682504
 30
0.0
 11
18.06866
 21
12.658345
 31
0.0
  0
LINE
  5
770
100
AcDbEntity
  8
OBJECTS
100
AcDbLine
 10
18.08666
 20
11.968504
 30
0.0
 11
18.06866
 21
11.992662
 31
0.0
  0
LINE
  5
771
100
AcDbEntity
  8
OBJECTS
100
AcDbLine
 10
18.25466
 20
11.968504
 30
0.0
 11
18.27266
 21
11.992662
 31
0.0
  0
ARC
  5
775
100
AcDbEntity
  8
OBJECTS
100
AcDbCircle
 10
19.432216
 20
12.325504
 30
0.0
 40
0.872556
100
AcDbArc
 50
171.763621
 51
188.236379
  0
ARC
  5
776
100
AcDbEntity
  8
OBJECTS
100
AcDbCircle
 10
17.811105
 20
12.325504
 30
0.0
 40
0.872556
100
AcDbArc
 50
351.763621
 51
8.236379
  0
ARC
  5
779
100
AcDbEntity
  8
OBJECTS
100
AcDbCircle
 10
18.760841
 20
12.510004
 30
0.0
 40
0.201181
100
AcDbArc
 50
162.79723
 51
197.20277
  0
ARC
  5
77A
100
AcDbEntity
  8
OBJECTS
100
AcDbCircle
 10
18.48248
 20
12.510004
 30
0.0
 40
0.201181
100
AcDbArc
 50
342.79723
 51
17.20277
  0
ARC
  5
77B
100
AcDbEntity
  8
OBJECTS
100
AcDbCircle
 10
18.48248
 20
12.141004
 30
0.0
 40
0.201181
100
AcDbArc
 50
342.79723
 51
17.20277
  0
ARC
  5
77C
100
AcDbEntity
  8
OBJECTS
100
AcDbCircle
 10
18.760841
 20
12.141004
 30
0.0
 40
0.201181
100
AcDbArc
 50
162.79723
 51
197.20277
  0
LINE
  5
77D
100
AcDbEntity
  8
OBJECTS
100
AcDbLine
 10
18.67466
 20
12.569504
 30
0.0
 11
18.68366
 21
12.557775
 31
0.0
  0
LINE
  5
77E
100
AcDbEntity
  8
OBJECTS
100
AcDbLine
 10
18.56866
 20
12.569504
 30
0.0
 11
18.55966
 21
12.557775
 31
0.0
  0
LINE
  5
77F
100
AcDbEntity
  8
OBJECTS
100
AcDbLine
 10
18.67466
 20
12.081504
 30
0.0
 11
18.68366
 21
12.093232
 31
0.0
  0
LINE
  5
780
100
AcDbEntity
  8
OBJECTS
100
AcDbLine
 10
18.56866
 20
12.081504
 30
0.0
 11
18.55966
 21
12.093232
 31
0.0
  0
LINE
  5
782
100
AcDbEntity
  8
OBJECTS
100
AcDbLine
 10
17.98416
 20
12.706004
 30
0.0
 11
17.98416
 21
13.085004
 31
0.0
  0
LINE
  5
783
100
AcDbEntity
  8
OBJECTS
100
AcDbLine
 10
17.26816
 20
12.706004
 30
0.0
 11
17.26816
 21
13.085004
 31
0.0
  0
LINE
  5
784
100
AcDbEntity
  8
OBJECTS
100
AcDbLine
 10
17.33066
 20
13.147504
 30
0.0
 11
17.92166
 21
13.147504
 31
0.0
  0
ARC
  5
785
100
AcDbEntity
  8
OBJECTS
100
AcDbCircle
 10
17.92166
 20
13.085004
 30
0.0
 40
0.0625
100
AcDbArc
 50
0.0
 51
90.0
  0
ARC
  5
786
100
AcDbEntity
  8
OBJECTS
100
AcDbCircle
 10
17.33066
 20
13.085004
 30
0.0
 40
0.0625
100
AcDbArc
 50
90.0
 51
180.0
  0
LINE
  5
787
100
AcDbEntity
  8
OBJECTS
100
AcDbLine
 10
17.35316
 20
13.385004
 30
0.0
 11
17.89916
 21
13.385004
 31
0.0
  0
LINE
  5
788
100
AcDbEntity
  8
OBJECTS
100
AcDbLine
 10
17.35316
 20
13.260004
 30
0.0
 11
17.89916
 21
13.260004
 31
0.0
  0
LINE
  5
789
100
AcDbEntity
  8
OBJECTS
100
AcDbLine
 10
17.41566
 20
13.197504
 30
0.0
 11
17.83666
 21
13.197504
 31
0.0
  0
LINE
  5
78A
100
AcDbEntity
  8
OBJECTS
100
AcDbLine
 10
17.41566
 20
13.322504
 30
0.0
 11
17.83666
 21
13.322504
 31
0.0
  0
LINE
  5
78B
100
AcDbEntity
  8
OBJECTS
100
AcDbLine
 10
17.35316
 20
13.147504
 30
0.0
 11
17.35316
 21
13.433504
 31
0.0
  0
LINE
  5
78C
100
AcDbEntity
  8
OBJECTS
100
AcDbLine
 10
17.89916
 20
13.147504
 30
0.0
 11
17.89916
 21
13.433504
 31
0.0
  0
LINE
  5
78D
100
AcDbEntity
  8
OBJECTS
100
AcDbLine
 10
17.90616
 20
13.433504
 30
0.0
 11
17.90616
 21
13.736303
 31
0.0
  0
LINE
  5
78E
100
AcDbEntity
  8
OBJECTS
100
AcDbLine
 10
17.34616
 20
13.433504
 30
0.0
 11
17.34616
 21
13.736303
 31
0.0
  0
LINE
  5
791
100
AcDbEntity
  8
OBJECTS
100
AcDbLine
 10
17.34616
 20
13.433504
 30
0.0
 11
17.90616
 21
13.433504
 31
0.0
  0
CIRCLE
  5
796
100
AcDbEntity
  8
OBJECTS
100
AcDbCircle
 10
17.62616
 20
15.132504
 30
0.0
 40
1.424
  0
CIRCLE
  5
797
100
AcDbEntity
  8
OBJECTS
100
AcDbCircle
 10
17.62616
 20
15.132504
 30
0.0
 40
0.75
  0
LINE
  5
79D
100
AcDbEntity
  8
OBJECTS
100
AcDbLine
 10
17.628472
 20
16.060379
 30
0.0
 11
17.628472
 21
15.830839
 31
0.0
  0
LINE
  5
79F
100
AcDbEntity
  8
OBJECTS
100
AcDbLine
 10
17.084962
 20
15.88058
 30
0.0
 11
17.214118
 21
15.702812
 31
0.0
  0
LINE
  5
7A0
100
AcDbEntity
  8
OBJECTS
100
AcDbLine
 10
18.160683
 20
15.88884
 30
0.0
 11
17.089304
 21
14.414213
 31
0.0
  0
LINE
  5
7A1
100
AcDbEntity
  8
OBJECTS
100
AcDbLine
 10
16.758916
 20
15.421921
 30
0.0
 11
16.960485
 21
15.356427
 31
0.0
  0
LINE
  5
7A2
100
AcDbEntity
  8
OBJECTS
100
AcDbLine
 10
16.761698
 20
14.867368
 30
0.0
 11
16.960485
 21
14.931958
 31
0.0
  0
CIRCLE
  5
7A3
100
AcDbEntity
  8
OBJECTS
100
AcDbCircle
 10
17.62616
 20
15.132504
 30
0.0
 40
1.234
  0
CIRCLE
  5
7A4
100
AcDbEntity
  8
OBJECTS
100
AcDbCircle
 10
17.62616
 20
15.132504
 30
0.0
 40
1.331
  0
LINE
  5
7A5
100
AcDbEntity
  8
OBJECTS
100
AcDbLine
 10
16.949654
 20
14.222001
 30
0.0
 11
17.934719
 21
15.699401
 31
0.0
  0
LINE
  5
7A6
100
AcDbEntity
  8
OBJECTS
100
AcDbLine
 10
17.934719
 20
15.699401
 30
0.0
 11
18.054766
 21
15.607666
 31
0.0
  0
LINE
  5
7A9
100
AcDbEntity
  8
OBJECTS
100
AcDbLine
 10
16.949654
 20
14.222001
 30
0.0
 11
18.050343
 21
15.615395
 31
0.0
  0
CIRCLE
  5
7AB
100
AcDbEntity
  8
OBJECTS
100
AcDbCircle
 10
17.613677
 20
15.144192
 30
0.0
 40
0.686806
  0
LINE
  5
7AD
100
AcDbEntity
  8
OBJECTS
100
AcDbLine
 10
18.021485
 20
14.591567
 30
0.0
 11
18.156293
 21
14.406021
 31
0.0
  0
LINE
  5
7AE
100
AcDbEntity
  8
OBJECTS
100
AcDbLine
 10
18.266868
 20
14.931958
 30
0.0
 11
18.492376
 21
14.858686
 31
0.0
  0
LINE
  5
7AF
100
AcDbEntity
  8
OBJECTS
100
AcDbLine
 10
18.266868
 20
15.356427
 30
0.0
 11
18.495245
 21
15.430631
 31
0.0
  0
TEXT
  5
7B0
100
AcDbEntity
  8
OBJECTS
100
AcDbText
 10
17.503961
 20
16.108679
 30
0.0
 40
0.125
  1
100
 41
0.75
  7
ROMANS
100
AcDbText
  0
TEXT
  5
7B1
100
AcDbEntity
  8
OBJECTS
100
AcDbText
 10
18.090074
 20
15.939323
 30
0.0
 40
0.125
  1
125
 41
0.75
  7
ROMANS
100
AcDbText
  0
TEXT
  5
7B2
100
AcDbEntity
  8
OBJECTS
100
AcDbText
 10
18.492585
 20
15.395971
 30
0.0
 40
0.125
  1
150
 41
0.75
  7
ROMANS
100
AcDbText
  0
TEXT
  5
7B4
100
AcDbEntity
  8
OBJECTS
100
AcDbText
 10
18.485523
 20
14.796166
 30
0.0
 40
0.125
  1
175
 41
0.75
  7
ROMANS
100
AcDbText
  0
TEXT
  5
7B5
100
AcDbEntity
  8
OBJECTS
100
AcDbText
 10
18.139505
 20
14.25987
 30
0.0
 40
0.125
  1
200
 41
0.75
  7
ROMANS
100
AcDbText
  0
TEXT
  5
7B6
100
AcDbEntity
  8
OBJECTS
100
AcDbText
 10
16.797801
 20
15.875814
 30
0.0
 40
0.125
  1
75
 41
0.75
  7
ROMANS
100
AcDbText
  0
TEXT
  5
7B7
100
AcDbEntity
  8
OBJECTS
100
AcDbText
 10
16.487091
 20
15.403027
 30
0.0
 40
0.125
  1
50
 41
0.75
  7
ROMANS
100
AcDbText
  0
TEXT
  5
7B8
100
AcDbEntity
  8
OBJECTS
100
AcDbText
 10
16.472967
 20
14.760883
 30
0.0
 40
0.125
  1
25
 41
0.75
  7
ROMANS
100
AcDbText
  0
TEXT
  5
7B9
100
AcDbEntity
  8
OBJECTS
100
AcDbText
 10
16.864915
 20
14.236114
 30
0.0
 40
0.125
  1
0
 41
0.75
  7
ROMANS
100
AcDbText
  0
SOLID
  5
7BA
100
AcDbEntity
  8
OBJECTS
100
AcDbTrace
 10
17.934719
 20
15.699401
 30
0.0
 11
18.054766
 21
15.607666
 31
0.0
 12
16.949654
 22
14.222001
 32
0.0
 13
16.949654
 23
14.222001
 33
0.0
  0
ARC
  5
7BC
100
AcDbEntity
  8
OBJECTS
100
AcDbCircle
 10
17.62616
 20
14.116837
 30
0.0
 40
0.683333
100
AcDbArc
 50
245.810486
 51
294.189514
  0
INSERT
  5
7C9
100
AcDbEntity
  8
OBJECTS
100
AcDbBlockReference
  2
*X25
 10
-0.125
 20
0.0
 30
0.0
1001
ACAD
1000
HATCH
1002
{
1070
    19
1000
NET3
1040
1.0
1040
0.628319
1000
ASC_BOUNDS
1070
     1
1070
     1
1070
     4
1005
75D
1005
75B
1005
75C
1005
75E
1000
ASC_SEEDPOINT
1011
19.13444
1021
12.384301
1031
0.0
1002
}
  0
LINE
  5
7E0
100
AcDbEntity
  8
OBJECTS
  6
CENTER
100
AcDbLine
 10
16.960802
 20
12.325504
 30
0.0
 11
19.752715
 21
12.325504
 31
0.0
  0
LINE
  5
82A
100
AcDbEntity
  8
OBJECTS
100
AcDbLine
 10
13.80856
 20
16.445457
 30
0.0
 11
13.534937
 21
16.391824
 31
0.0
  0
LINE
  5
82B
100
AcDbEntity
  8
OBJECTS
100
AcDbLine
 10
13.534937
 20
16.391824
 30
0.0
 11
13.330834
 21
16.349333
 31
0.0
  0
LINE
  5
82C
100
AcDbEntity
  8
OBJECTS
100
AcDbLine
 10
13.330834
 20
16.349333
 30
0.0
 11
13.279808
 21
16.281347
 31
0.0
  0
LINE
  5
82D
100
AcDbEntity
  8
OBJECTS
100
AcDbLine
 10
13.279808
 20
16.281347
 30
0.0
 11
13.109722
 21
16.22186
 31
0.0
  0
LINE
  5
82E
100
AcDbEntity
  8
OBJECTS
100
AcDbLine
 10
13.109722
 20
16.22186
 30
0.0
 11
12.999166
 21
16.196365
 31
0.0
  0
LINE
  5
82F
100
AcDbEntity
  8
OBJECTS
100
AcDbLine
 10
12.999166
 20
16.196365
 30
0.0
 11
12.795063
 21
16.196365
 31
0.0
  0
LINE
  5
830
100
AcDbEntity
  8
OBJECTS
100
AcDbLine
 10
12.795063
 20
16.196365
 30
0.0
 11
12.735533
 21
16.196365
 31
0.0
  0
LINE
  5
831
100
AcDbEntity
  8
OBJECTS
100
AcDbLine
 10
12.735533
 20
16.196365
 30
0.0
 11
12.667499
 21
16.153874
 31
0.0
  0
LINE
  5
832
100
AcDbEntity
  8
OBJECTS
100
AcDbLine
 10
12.667499
 20
16.153874
 30
0.0
 11
12.599464
 21
16.094387
 31
0.0
  0
LINE
  5
833
100
AcDbEntity
  8
OBJECTS
100
AcDbLine
 10
12.599464
 20
16.094387
 30
0.0
 11
12.488908
 21
16.043398
 31
0.0
  0
LINE
  5
834
100
AcDbEntity
  8
OBJECTS
100
AcDbLine
 10
12.488908
 20
16.043398
 30
0.0
 11
12.318822
 21
16.009405
 31
0.0
  0
LINE
  5
835
100
AcDbEntity
  8
OBJECTS
100
AcDbLine
 10
12.318822
 20
16.009405
 30
0.0
 11
12.250788
 21
15.992409
 31
0.0
  0
LINE
  5
836
100
AcDbEntity
  8
OBJECTS
100
AcDbLine
 10
12.250788
 20
15.992409
 30
0.0
 11
12.250788
 21
15.992409
 31
0.0
  0
LINE
  5
837
100
AcDbEntity
  8
OBJECTS
100
AcDbLine
 10
12.250788
 20
15.992409
 30
0.0
 11
12.046684
 21
15.890431
 31
0.0
  0
LINE
  5
838
100
AcDbEntity
  8
OBJECTS
100
AcDbLine
 10
12.046684
 20
15.890431
 30
0.0
 11
11.876599
 21
15.873434
 31
0.0
  0
LINE
  5
839
100
AcDbEntity
  8
OBJECTS
100
AcDbLine
 10
11.876599
 20
15.873434
 30
0.0
 11
11.783051
 21
15.881932
 31
0.0
1001
ACAD
1000
ASC_BOUNDS
1002
{
1070
    19
1002
}
  0
LINE
  5
83A
100
AcDbEntity
  8
OBJECTS
100
AcDbLine
 10
11.783051
 20
15.881932
 30
0.0
 11
11.783051
 21
15.881932
 31
0.0
  0
LINE
  5
83B
100
AcDbEntity
  8
OBJECTS
100
AcDbLine
 10
11.783051
 20
15.881932
 30
0.0
 11
11.55856
 21
15.822445
 31
0.0
1001
ACAD
1000
ASC_BOUNDS
1002
{
1070
    19
1002
}
  0
LINE
  5
83E
100
AcDbEntity
  8
OBJECTS
  6
HIDDEN
100
AcDbLine
 10
11.24596
 20
11.852754
 30
0.0
 11
11.24596
 21
10.665254
 31
0.0
1001
ACAD
1000
ASC_BOUNDS
1002
{
1070
    19
1005
0
1005
0
1002
}
  0
LINE
  5
83F
100
AcDbEntity
  8
OBJECTS
100
AcDbLine
 10
11.55856
 20
10.852754
 30
0.0
 11
11.55856
 21
10.665254
 31
0.0
1001
ACAD
1000
ASC_BOUNDS
1002
{
1070
    19
1002
}
  0
LINE
  5
840
100
AcDbEntity
  8
OBJECTS
100
AcDbLine
 10
11.55856
 20
10.852754
 30
0.0
 11
13.80856
 21
10.852754
 31
0.0
1001
ACAD
1000
ASC_BOUNDS
1002
{
1070
    19
1002
}
  0
LINE
  5
841
100
AcDbEntity
  8
OBJECTS
100
AcDbLine
 10
11.74606
 20
10.477754
 30
0.0
 11
12.297968
 21
10.477754
 31
0.0
1001
ACAD
1000
ASC_BOUNDS
1002
{
1070
    19
1002
}
  0
ARC
  5
843
100
AcDbEntity
  8
OBJECTS
100
AcDbCircle
 10
11.74606
 20
10.665254
 30
0.0
 40
0.1875
100
AcDbArc
 50
180.0
 51
270.0
1001
ACAD
1000
ASC_BOUNDS
1002
{
1070
    19
1002
}
  0
LINE
  5
844
100
AcDbEntity
  8
OBJECTS
100
AcDbLine
 10
12.62106
 20
9.352754
 30
0.0
 11
12.62106
 21
10.222754
 31
0.0
1001
ACAD
1000
ASC_BOUNDS
1002
{
1070
    19
1002
}
  0
LINE
  5
845
100
AcDbEntity
  8
OBJECTS
100
AcDbLine
 10
12.25131
 20
10.352754
 30
0.0
 11
12.36856
 21
10.352754
 31
0.0
1001
ACAD
1000
ASC_BOUNDS
1002
{
1070
    19
1002
}
  0
LINE
  5
846
100
AcDbEntity
  8
OBJECTS
100
AcDbLine
 10
12.25131
 20
10.222754
 30
0.0
 11
12.25131
 21
10.352754
 31
0.0
1001
ACAD
1000
ASC_BOUNDS
1002
{
1070
    19
1002
}
  0
LINE
  5
849
100
AcDbEntity
  8
OBJECTS
100
AcDbLine
 10
12.353487
 20
10.384004
 30
0.0
 11
12.299361
 21
10.477754
 31
0.0
1001
ACAD
1000
ASC_BOUNDS
1002
{
1070
    19
1002
}
  0
LINE
  5
84A
100
AcDbEntity
  8
OBJECTS
100
AcDbLine
 10
12.25131
 20
10.222754
 30
0.0
 11
12.62106
 21
10.222754
 31
0.0
1001
ACAD
1000
ASC_BOUNDS
1002
{
1070
    19
1002
}
  0
LINE
  5
84B
100
AcDbEntity
  8
OBJECTS
100
AcDbLine
 10
12.37106
 20
9.415254
 30
0.0
 11
12.37106
 21
9.790254
 31
0.0
1001
ACAD
1000
ASC_BOUNDS
1002
{
1070
    19
1002
}
  0
LINE
  5
84C
100
AcDbEntity
  8
OBJECTS
100
AcDbLine
 10
12.353487
 20
10.352754
 30
0.0
 11
12.353487
 21
10.384004
 31
0.0
1001
ACAD
1000
ASC_BOUNDS
1002
{
1070
    19
1002
}
  0
LINE
  5
84D
100
AcDbEntity
  8
OBJECTS
100
AcDbLine
 10
12.353487
 20
10.384004
 30
0.0
 11
12.36856
 21
10.384004
 31
0.0
  0
LINE
  5
84F
100
AcDbEntity
  8
OBJECTS
100
AcDbLine
 10
12.62106
 20
10.222754
 30
0.0
 11
13.80856
 21
10.222754
 31
0.0
  0
LINE
  5
851
100
AcDbEntity
  8
OBJECTS
100
AcDbLine
 10
12.68356
 20
10.160254
 30
0.0
 11
13.80856
 21
10.160254
 31
0.0
  0
LINE
  5
852
100
AcDbEntity
  8
OBJECTS
100
AcDbLine
 10
12.62106
 20
10.097754
 30
0.0
 11
13.80856
 21
10.097754
 31
0.0
  0
LINE
  5
853
100
AcDbEntity
  8
OBJECTS
100
AcDbLine
 10
12.68356
 20
10.035254
 30
0.0
 11
13.80856
 21
10.035254
 31
0.0
  0
LINE
  5
854
100
AcDbEntity
  8
OBJECTS
100
AcDbLine
 10
12.62106
 20
9.972754
 30
0.0
 11
13.80856
 21
9.972754
 31
0.0
  0
LINE
  5
855
100
AcDbEntity
  8
OBJECTS
100
AcDbLine
 10
12.68356
 20
9.910254
 30
0.0
 11
13.80856
 21
9.910254
 31
0.0
  0
LINE
  5
856
100
AcDbEntity
  8
OBJECTS
100
AcDbLine
 10
12.62106
 20
9.847754
 30
0.0
 11
13.80856
 21
9.847754
 31
0.0
  0
LINE
  5
857
100
AcDbEntity
  8
OBJECTS
100
AcDbLine
 10
12.68356
 20
9.785254
 30
0.0
 11
13.80856
 21
9.785254
 31
0.0
  0
LINE
  5
858
100
AcDbEntity
  8
OBJECTS
100
AcDbLine
 10
12.62106
 20
9.722754
 30
0.0
 11
13.80856
 21
9.722754
 31
0.0
  0
LINE
  5
859
100
AcDbEntity
  8
OBJECTS
100
AcDbLine
 10
12.68356
 20
9.660254
 30
0.0
 11
13.80856
 21
9.660254
 31
0.0
  0
LINE
  5
85A
100
AcDbEntity
  8
OBJECTS
100
AcDbLine
 10
12.62106
 20
9.597754
 30
0.0
 11
13.80856
 21
9.597754
 31
0.0
  0
LINE
  5
85B
100
AcDbEntity
  8
OBJECTS
100
AcDbLine
 10
12.68356
 20
9.535254
 30
0.0
 11
13.80856
 21
9.535254
 31
0.0
  0
LINE
  5
85C
100
AcDbEntity
  8
OBJECTS
100
AcDbLine
 10
12.62106
 20
9.472754
 30
0.0
 11
13.80856
 21
9.472754
 31
0.0
  0
LINE
  5
85D
100
AcDbEntity
  8
OBJECTS
100
AcDbLine
 10
12.68356
 20
9.410254
 30
0.0
 11
13.80856
 21
9.410254
 31
0.0
  0
LINE
  5
85F
100
AcDbEntity
  8
OBJECTS
100
AcDbLine
 10
12.25856
 20
10.335254
 30
0.0
 11
12.25856
 21
10.222754
 31
0.0
1001
ACAD
1000
ASC_BOUNDS
1002
{
1070
    19
1002
}
  0
LINE
  5
861
100
AcDbEntity
  8
OBJECTS
100
AcDbLine
 10
12.25856
 20
10.222754
 30
0.0
 11
13.80856
 21
10.222754
 31
0.0
1001
ACAD
1000
ASC_BOUNDS
1002
{
1070
    19
1002
}
  0
LINE
  5
862
100
AcDbEntity
  8
OBJECTS
100
AcDbLine
 10
12.44606
 20
10.780254
 30
0.0
 11
13.80856
 21
10.780254
 31
0.0
  0
LINE
  5
863
100
AcDbEntity
  8
OBJECTS
100
AcDbLine
 10
12.25856
 20
10.335254
 30
0.0
 11
12.36856
 21
10.335254
 31
0.0
1001
ACAD
1000
ASC_BOUNDS
1002
{
1070
    19
1002
}
  0
LINE
  5
864
100
AcDbEntity
  8
OBJECTS
100
AcDbLine
 10
13.80856
 20
10.222754
 30
0.0
 11
13.80856
 21
10.780254
 31
0.0
  0
LINE
  5
865
100
AcDbEntity
  8
OBJECTS
100
AcDbLine
 10
12.58856
 20
10.222754
 30
0.0
 11
12.58856
 21
10.470893
 31
0.0
  0
LINE
  5
866
100
AcDbEntity
  8
OBJECTS
100
AcDbLine
 10
12.36856
 20
10.335254
 30
0.0
 11
12.36856
 21
10.42202
 31
0.0
1001
ACAD
1000
ASC_BOUNDS
1002
{
1070
    19
1002
}
  0
ARC
  5
86D
100
AcDbEntity
  8
OBJECTS
100
AcDbCircle
 10
12.44606
 20
10.592754
 30
0.0
 40
0.1875
100
AcDbArc
 50
319.464198
 51
245.585598
1001
ACAD
1000
ASC_BOUNDS
1002
{
1070
    19
1005
8DC
1002
}
  0
LINE
  5
870
100
AcDbEntity
  8
OBJECTS
100
AcDbLine
 10
12.612931
 20
10.507254
 30
0.0
 11
13.80856
 21
10.507254
 31
0.0
  0
LINE
  5
871
100
AcDbEntity
  8
OBJECTS
100
AcDbLine
 10
13.80856
 20
10.08661
 30
0.0
 11
13.80856
 21
10.636251
 31
0.0
  0
LINE
  5
872
100
AcDbEntity
  8
OBJECTS
100
AcDbLine
 10
13.80856
 20
10.222754
 30
0.0
 11
12.58856
 21
10.222754
 31
0.0
1001
ACAD
1000
ASC_BOUNDS
1002
{
1070
    19
1005
8DC
1002
}
  0
LINE
  5
873
100
AcDbEntity
  8
OBJECTS
100
AcDbLine
 10
12.58856
 20
10.222754
 30
0.0
 11
12.58856
 21
10.470893
 31
0.0
1001
ACAD
1000
ASC_BOUNDS
1002
{
1070
    19
1005
8DC
1002
}
  0
LINE
  5
875
100
AcDbEntity
  8
OBJECTS
100
AcDbLine
 10
12.76856
 20
10.222754
 30
0.0
 11
12.76856
 21
10.447754
 31
0.0
1001
ACAD
1000
ASC_BOUNDS
1002
{
1070
    19
1005
8DC
1002
}
  0
LINE
  5
877
100
AcDbEntity
  8
OBJECTS
100
AcDbLine
 10
12.66256
 20
10.507254
 30
0.0
 11
12.612931
 21
10.507254
 31
0.0
1001
ACAD
1000
ASC_BOUNDS
1002
{
1070
    19
1005
8DC
1002
}
  0
LINE
  5
878
100
AcDbEntity
  8
OBJECTS
100
AcDbLine
 10
13.80856
 20
10.447754
 30
0.0
 11
12.76856
 21
10.447754
 31
0.0
  0
LINE
  5
879
100
AcDbEntity
  8
OBJECTS
100
AcDbLine
 10
12.66256
 20
10.507254
 30
0.0
 11
12.76856
 21
10.447754
 31
0.0
1001
ACAD
1000
ASC_BOUNDS
1002
{
1070
    19
1005
8DC
1002
}
  0
LINE
  5
87A
100
AcDbEntity
  8
OBJECTS
100
AcDbLine
 10
12.66256
 20
10.507254
 30
0.0
 11
13.80856
 21
10.507254
 31
0.0
  0
LINE
  5
87B
100
AcDbEntity
  8
OBJECTS
100
AcDbLine
 10
12.614326
 20
10.507254
 30
0.0
 11
12.58856
 21
10.468812
 31
0.0
1001
ACAD
1000
ASC_BOUNDS
1002
{
1070
    19
1005
8DC
1002
}
  0
INSERT
  5
8DC
100
AcDbEntity
  8
OBJECTS
100
AcDbBlockReference
  2
*X31
 10
6.934525
 20
0.47152
 30
0.0
1001
ACAD
1000
HATCH
1002
{
1070
    19
1000
_U
1040
0.125
1040
2.356194
1070
     0
1000
ASC_BOUNDS
1070
     1
1070
     1
1070
     7
1005
879
1005
877
1005
87B
1005
86D
1005
873
1005
872
1005
875
1000
ASC_SEEDPOINT
1011
12.664101
1021
10.298294
1031
0.0
1002
}
  0
LINE
  5
8EE
100
AcDbEntity
  8
OBJECTS
100
AcDbLine
 10
11.55856
 20
10.852754
 30
0.0
 11
11.62106
 21
10.888838
 31
0.0
1001
ACAD
1000
ASC_BOUNDS
1002
{
1070
    19
1002
}
  0
LINE
  5
8EF
100
AcDbEntity
  8
OBJECTS
100
AcDbLine
 10
11.55856
 20
10.924922
 30
0.0
 11
11.62106
 21
10.888838
 31
0.0
1001
ACAD
1000
ASC_BOUNDS
1002
{
1070
    19
1002
}
  0
LINE
  5
8F0
100
AcDbEntity
  8
OBJECTS
100
AcDbLine
 10
11.55856
 20
10.924922
 30
0.0
 11
11.62106
 21
10.961007
 31
0.0
1001
ACAD
1000
ASC_BOUNDS
1002
{
1070
    19
1002
}
  0
LINE
  5
8F1
100
AcDbEntity
  8
OBJECTS
100
AcDbLine
 10
11.55856
 20
10.997091
 30
0.0
 11
11.62106
 21
10.961007
 31
0.0
1001
ACAD
1000
ASC_BOUNDS
1002
{
1070
    19
1002
}
  0
LINE
  5
8F2
100
AcDbEntity
  8
OBJECTS
100
AcDbLine
 10
11.55856
 20
11.06926
 30
0.0
 11
11.62106
 21
11.033176
 31
0.0
1001
ACAD
1000
ASC_BOUNDS
1002
{
1070
    19
1002
}
  0
LINE
  5
8F3
100
AcDbEntity
  8
OBJECTS
100
AcDbLine
 10
11.55856
 20
10.997091
 30
0.0
 11
11.62106
 21
11.033176
 31
0.0
1001
ACAD
1000
ASC_BOUNDS
1002
{
1070
    19
1002
}
  0
LINE
  5
8F4
100
AcDbEntity
  8
OBJECTS
100
AcDbLine
 10
11.55856
 20
11.06926
 30
0.0
 11
11.62106
 21
11.105344
 31
0.0
1001
ACAD
1000
ASC_BOUNDS
1002
{
1070
    19
1002
}
  0
LINE
  5
8F5
100
AcDbEntity
  8
OBJECTS
100
AcDbLine
 10
11.55856
 20
11.141429
 30
0.0
 11
11.62106
 21
11.105344
 31
0.0
1001
ACAD
1000
ASC_BOUNDS
1002
{
1070
    19
1002
}
  0
LINE
  5
8F6
100
AcDbEntity
  8
OBJECTS
100
AcDbLine
 10
11.55856
 20
11.213598
 30
0.0
 11
11.62106
 21
11.249682
 31
0.0
1001
ACAD
1000
ASC_BOUNDS
1002
{
1070
    19
1002
}
  0
LINE
  5
8F7
100
AcDbEntity
  8
OBJECTS
100
AcDbLine
 10
11.55856
 20
11.141429
 30
0.0
 11
11.62106
 21
11.177513
 31
0.0
1001
ACAD
1000
ASC_BOUNDS
1002
{
1070
    19
1002
}
  0
LINE
  5
8F8
100
AcDbEntity
  8
OBJECTS
100
AcDbLine
 10
11.55856
 20
11.213598
 30
0.0
 11
11.62106
 21
11.177513
 31
0.0
1001
ACAD
1000
ASC_BOUNDS
1002
{
1070
    19
1002
}
  0
LINE
  5
8F9
100
AcDbEntity
  8
OBJECTS
100
AcDbLine
 10
11.55856
 20
11.285766
 30
0.0
 11
11.62106
 21
11.249682
 31
0.0
1001
ACAD
1000
ASC_BOUNDS
1002
{
1070
    19
1002
}
  0
LINE
  5
8FA
100
AcDbEntity
  8
OBJECTS
100
AcDbLine
 10
11.55856
 20
11.357935
 30
0.0
 11
11.62106
 21
11.321851
 31
0.0
1001
ACAD
1000
ASC_BOUNDS
1002
{
1070
    19
1002
}
  0
LINE
  5
8FB
100
AcDbEntity
  8
OBJECTS
100
AcDbLine
 10
11.55856
 20
11.285766
 30
0.0
 11
11.62106
 21
11.321851
 31
0.0
1001
ACAD
1000
ASC_BOUNDS
1002
{
1070
    19
1002
}
  0
LINE
  5
8FC
100
AcDbEntity
  8
OBJECTS
100
AcDbLine
 10
11.55856
 20
11.357935
 30
0.0
 11
11.62106
 21
11.39402
 31
0.0
1001
ACAD
1000
ASC_BOUNDS
1002
{
1070
    19
1002
}
  0
LINE
  5
8FD
100
AcDbEntity
  8
OBJECTS
100
AcDbLine
 10
11.55856
 20
11.430104
 30
0.0
 11
11.62106
 21
11.39402
 31
0.0
1001
ACAD
1000
ASC_BOUNDS
1002
{
1070
    19
1002
}
  0
LINE
  5
8FE
100
AcDbEntity
  8
OBJECTS
100
AcDbLine
 10
11.55856
 20
11.64661
 30
0.0
 11
11.62106
 21
11.610526
 31
0.0
1001
ACAD
1000
ASC_BOUNDS
1002
{
1070
    19
1002
}
  0
LINE
  5
8FF
100
AcDbEntity
  8
OBJECTS
100
AcDbLine
 10
11.55856
 20
11.430104
 30
0.0
 11
11.62106
 21
11.466188
 31
0.0
1001
ACAD
1000
ASC_BOUNDS
1002
{
1070
    19
1002
}
  0
LINE
  5
900
100
AcDbEntity
  8
OBJECTS
100
AcDbLine
 10
11.55856
 20
11.502273
 30
0.0
 11
11.62106
 21
11.466188
 31
0.0
1001
ACAD
1000
ASC_BOUNDS
1002
{
1070
    19
1002
}
  0
LINE
  5
901
100
AcDbEntity
  8
OBJECTS
100
AcDbLine
 10
11.55856
 20
11.574441
 30
0.0
 11
11.62106
 21
11.538357
 31
0.0
1001
ACAD
1000
ASC_BOUNDS
1002
{
1070
    19
1002
}
  0
LINE
  5
902
100
AcDbEntity
  8
OBJECTS
100
AcDbLine
 10
11.55856
 20
11.502273
 30
0.0
 11
11.62106
 21
11.538357
 31
0.0
1001
ACAD
1000
ASC_BOUNDS
1002
{
1070
    19
1002
}
  0
LINE
  5
903
100
AcDbEntity
  8
OBJECTS
100
AcDbLine
 10
11.55856
 20
11.574441
 30
0.0
 11
11.62106
 21
11.610526
 31
0.0
1001
ACAD
1000
ASC_BOUNDS
1002
{
1070
    19
1002
}
  0
LINE
  5
904
100
AcDbEntity
  8
OBJECTS
100
AcDbLine
 10
11.55856
 20
11.64661
 30
0.0
 11
11.62106
 21
11.682695
 31
0.0
1001
ACAD
1000
ASC_BOUNDS
1002
{
1070
    19
1002
}
  0
LINE
  5
906
100
AcDbEntity
  8
OBJECTS
100
AcDbLine
 10
11.55856
 20
11.718779
 30
0.0
 11
11.62106
 21
11.754863
 31
0.0
1001
ACAD
1000
ASC_BOUNDS
1002
{
1070
    19
1002
}
  0
LINE
  5
907
100
AcDbEntity
  8
OBJECTS
100
AcDbLine
 10
11.55856
 20
11.790948
 30
0.0
 11
11.62106
 21
11.754863
 31
0.0
1001
ACAD
1000
ASC_BOUNDS
1002
{
1070
    19
1002
}
  0
LINE
  5
909
100
AcDbEntity
  8
OBJECTS
100
AcDbLine
 10
11.55856
 20
11.790948
 30
0.0
 11
11.62106
 21
11.827032
 31
0.0
1001
ACAD
1000
ASC_BOUNDS
1002
{
1070
    19
1002
}
  0
LINE
  5
90B
100
AcDbEntity
  8
OBJECTS
100
AcDbLine
 10
11.55856
 20
11.718779
 30
0.0
 11
11.62106
 21
11.682695
 31
0.0
1001
ACAD
1000
ASC_BOUNDS
1002
{
1070
    19
1002
}
  0
LINE
  5
9AF
100
AcDbEntity
  8
OBJECTS
100
AcDbLine
 10
11.279027
 20
19.227754
 30
0.0
 11
11.43891
 21
19.227754
 31
0.0
  0
LINE
  5
9B0
100
AcDbEntity
  8
OBJECTS
100
AcDbLine
 10
11.279027
 20
18.227754
 30
0.0
 11
11.43891
 21
18.227754
 31
0.0
  0
DIMENSION
  5
9BE
100
AcDbEntity
  8
DIM
100
AcDbDimension
  2
*D33
 10
23.794951
 20
22.352754
 30
0.0
 11
23.794951
 21
15.852754
 31
0.0
 70
   160
  1
{C}
  3
DETAILS
100
AcDbAlignedDimension
 13
15.18356
 23
9.352754
 33
0.0
 14
14.37106
 24
22.352754
 34
0.0
 50
90.0
100
AcDbRotatedDimension
1001
ACAD
1000
DSTYLE
1002
{
1070
   140
1040
0.5
1070
   340
1005
11F
1070
   147
1040
0.25
1070
    42
1040
0.25
1070
    44
1040
0.5
1070
    41
1040
0.5
1070
   170
1070
     1
1002
}
  0
DIMENSION
  5
9D8
100
AcDbEntity
  8
DIM
100
AcDbDimension
  2
*D34
 10
13.80856
 20
17.322751
 30
0.0
 11
21.88641
 21
17.322751
 31
0.0
 70
   160
  3
DETAILS
100
AcDbAlignedDimension
 13
19.26816
 23
12.825504
 33
0.0
 14
13.80856
 24
12.825504
 34
0.0
100
AcDbRotatedDimension
1001
ACAD
1000
DSTYLE
1002
{
1070
    78
1070
     0
1070
   140
1040
0.5
1070
   340
1005
11F
1070
    76
1070
     1
1070
   147
1040
0.25
1070
    42
1040
0.25
1070
    44
1040
0.5
1070
    41
1040
0.5
1070
   170
1070
     1
1002
}
  0
DIMENSION
  5
A25
100
AcDbEntity
  8
DIM
100
AcDbDimension
  2
*D36
 10
14.99606
 20
7.300956
 30
0.0
 11
17.55737
 21
7.300956
 31
0.0
 70
    32
  1
{2[51] I.P.S.}
  3
DETAILS
100
AcDbAlignedDimension
 13
12.62106
 23
9.352754
 33
0.0
 14
14.99606
 24
9.352754
 34
0.0
100
AcDbRotatedDimension
1001
ACAD
1000
DSTYLE
1002
{
1070
   140
1040
0.5
1070
   340
1005
11F
1070
   147
1040
0.25
1070
    42
1040
0.25
1070
    44
1040
0.5
1070
    41
1040
0.5
1070
   170
1070
     1
1002
}
  0
LINE
  5
A3E
100
AcDbEntity
  8
OBJECTS
100
AcDbLine
 10
15.74606
 20
10.227754
 30
0.0
 11
13.80856
 21
10.227754
 31
0.0
  0
LINE
  5
A3F
100
AcDbEntity
  8
OBJECTS
100
AcDbLine
 10
15.37106
 20
9.915254
 30
0.0
 11
13.80856
 21
9.915254
 31
0.0
  0
LINE
  5
A40
100
AcDbEntity
  8
OBJECTS
100
AcDbLine
 10
16.367138
 20
10.665254
 30
0.0
 11
16.367138
 21
11.852754
 31
0.0
  0
LINE
  5
A41
100
AcDbEntity
  8
OBJECTS
100
AcDbLine
 10
16.62116
 20
11.227754
 30
0.0
 11
16.62116
 21
10.673504
 31
0.0
  0
INSERT
  5
AE6
100
AcDbEntity
  8
OBJECTS
100
AcDbBlockReference
  2
*X38
 10
0.0
 20
0.0
 30
0.0
1001
ACAD
1000
HATCH
1002
{
1070
    19
1000
_U
1040
0.125
1040
0.785398
1070
     0
1002
}
  0
POLYLINE
  5
B0A
100
AcDbEntity
  8
OBJECTS
100
AcDb2dPolyline
 66
     1
 10
0.0
 20
0.0
 30
0.0
 70
     1
 40
0.1875
 41
0.1875
  0
VERTEX
  5
C83
100
AcDbEntity
  8
OBJECTS
100
AcDbVertex
100
AcDb2dVertex
 10
12.35231
 20
10.592754
 30
0.0
 42
1.0
  0
VERTEX
  5
C84
100
AcDbEntity
  8
OBJECTS
100
AcDbVertex
100
AcDb2dVertex
 10
12.53981
 20
10.592754
 30
0.0
 42
1.0
  0
SEQEND
  5
C85
100
AcDbEntity
  8
OBJECTS
  0
SOLID
  5
B0E
100
AcDbEntity
  8
OBJECTS
100
AcDbTrace
 10
12.25856
 20
10.222754
 30
0.0
 11
12.25856
 21
10.335254
 31
0.0
 12
12.58856
 22
10.222754
 32
0.0
 13
12.58856
 23
10.335982
 33
0.0
  0
SOLID
  5
B0F
100
AcDbEntity
  8
OBJECTS
100
AcDbTrace
 10
12.36856
 20
10.42202
 30
0.0
 11
12.36856
 21
10.335496
 31
0.0
 12
12.58856
 22
10.468812
 32
0.0
 13
12.58856
 23
10.335982
 33
0.0
  0
LINE
  5
B24
100
AcDbEntity
  8
OBJECTS
100
AcDbLine
 10
13.62106
 20
19.227754
 30
0.0
 11
13.62106
 21
18.227754
 31
0.0
  0
LINE
  5
B25
100
AcDbEntity
  8
OBJECTS
100
AcDbLine
 10
13.99606
 20
19.227754
 30
0.0
 11
13.99606
 21
18.227754
 31
0.0
  0
LINE
  5
B26
100
AcDbEntity
  8
OBJECTS
100
AcDbLine
 10
16.150593
 20
19.227754
 30
0.0
 11
16.150593
 21
18.227754
 31
0.0
  0
LINE
  5
B27
100
AcDbEntity
  8
OBJECTS
100
AcDbLine
 10
16.338093
 20
19.227754
 30
0.0
 11
16.338093
 21
18.227754
 31
0.0
  0
LINE
  5
B28
100
AcDbEntity
  8
OBJECTS
100
AcDbLine
 10
11.466527
 20
19.227754
 30
0.0
 11
11.466527
 21
18.227754
 31
0.0
  0
LINE
  5
B29
100
AcDbEntity
  8
OBJECTS
100
AcDbLine
 10
11.279027
 20
19.227754
 30
0.0
 11
11.279027
 21
18.227754
 31
0.0
  0
LINE
  5
B2B
100
AcDbEntity
  8
OBJECTS
100
AcDbLine
 10
11.24596
 20
18.165254
 30
0.0
 11
11.24596
 21
19.227754
 31
0.0
  0
LINE
  5
B2C
100
AcDbEntity
  8
OBJECTS
100
AcDbLine
 10
13.62106
 20
19.227754
 30
0.0
 11
13.99606
 21
19.227754
 31
0.0
  0
LINE
  5
B2D
100
AcDbEntity
  8
OBJECTS
100
AcDbLine
 10
13.62106
 20
18.227754
 30
0.0
 11
13.99606
 21
18.227754
 31
0.0
  0
LINE
  5
B2E
100
AcDbEntity
  8
OBJECTS
100
AcDbLine
 10
16.216983
 20
18.227754
 30
0.0
 11
16.338093
 21
18.227754
 31
0.0
  0
LINE
  5
B30
100
AcDbEntity
  8
OBJECTS
100
AcDbLine
 10
16.37116
 20
18.165254
 30
0.0
 11
16.37116
 21
19.227754
 31
0.0
  0
LINE
  5
B31
100
AcDbEntity
  8
OBJECTS
100
AcDbLine
 10
16.216983
 20
19.227754
 30
0.0
 11
16.338093
 21
19.227754
 31
0.0
  0
ARC
  5
B3A
100
AcDbEntity
  8
OBJECTS
100
AcDbCircle
 10
11.43891
 20
19.477754
 30
0.0
 40
0.25
100
AcDbArc
 50
270.0
 51
0.0
  0
ARC
  5
B3C
100
AcDbEntity
  8
OBJECTS
100
AcDbCircle
 10
11.43891
 20
17.977754
 30
0.0
 40
0.25
100
AcDbArc
 50
0.0
 51
90.0
  0
ARC
  5
B3D
100
AcDbEntity
  8
OBJECTS
100
AcDbCircle
 10
11.279027
 20
17.977754
 30
0.0
 40
0.25
100
AcDbArc
 50
0.0
 51
90.0
  0
ARC
  5
B3F
100
AcDbEntity
  8
OBJECTS
100
AcDbCircle
 10
11.279027
 20
19.477754
 30
0.0
 40
0.25
100
AcDbArc
 50
270.0
 51
0.0
  0
ARC
  5
B40
100
AcDbEntity
  8
OBJECTS
100
AcDbCircle
 10
16.216983
 20
19.477754
 30
0.0
 40
0.25
100
AcDbArc
 50
180.0
 51
270.0
  0
ARC
  5
B42
100
AcDbEntity
  8
OBJECTS
100
AcDbCircle
 10
16.216983
 20
17.977754
 30
0.0
 40
0.25
100
AcDbArc
 50
90.0
 51
180.0
  0
ARC
  5
B43
100
AcDbEntity
  8
OBJECTS
100
AcDbCircle
 10
16.338093
 20
19.477754
 30
0.0
 40
0.25
100
AcDbArc
 50
180.0
 51
270.0
  0
ARC
  5
B44
100
AcDbEntity
  8
OBJECTS
100
AcDbCircle
 10
16.338093
 20
17.977754
 30
0.0
 40
0.25
100
AcDbArc
 50
90.0
 51
180.0
  0
ARC
  5
B45
100
AcDbEntity
  8
OBJECTS
100
AcDbCircle
 10
14.014009
 20
19.355288
 30
0.0
 40
0.128791
100
AcDbArc
 50
261.98884
 51
338.314052
  0
ARC
  5
B46
100
AcDbEntity
  8
OBJECTS
100
AcDbCircle
 10
14.014009
 20
18.10022
 30
0.0
 40
0.128791
100
AcDbArc
 50
21.685948
 51
98.01116
  0
ARC
  5
B47
100
AcDbEntity
  8
OBJECTS
100
AcDbCircle
 10
13.603111
 20
19.355288
 30
0.0
 40
0.128791
100
AcDbArc
 50
201.685948
 51
278.01116
  0
ARC
  5
B48
100
AcDbEntity
  8
OBJECTS
100
AcDbCircle
 10
13.603111
 20
18.10022
 30
0.0
 40
0.128791
100
AcDbArc
 50
81.98884
 51
158.314052
  0
DIMENSION
  5
B60
100
AcDbEntity
  8
DIM
100
AcDbDimension
  2
*D39
 10
16.37116
 20
24.51022
 30
0.0
 11
13.80856
 21
24.51022
 31
0.0
 70
    32
  1
{%%c<>}
  3
DETAILS
100
AcDbAlignedDimension
 13
11.24596
 23
19.227754
 33
0.0
 14
16.37116
 24
19.227754
 34
0.0
100
AcDbRotatedDimension
1001
ACAD
1000
DSTYLE
1002
{
1070
   140
1040
0.5
1070
   340
1005
11F
1070
   147
1040
0.25
1070
    42
1040
0.25
1070
    44
1040
0.5
1070
    41
1040
0.5
1070
   170
1070
     1
1002
}
  0
LINE
  5
B6D
100
AcDbEntity
  8
OBJECTS
100
AcDbLine
 10
11.80856
 20
15.879615
 30
0.0
 11
11.80856
 21
10.852754
 31
0.0
1001
ACAD
1000
ASC_BOUNDS
1002
{
1070
    19
1002
}
  0
ARC
  5
B6E
100
AcDbEntity
  8
OBJECTS
100
AcDbCircle
 10
13.886349
 20
13.900499
 30
0.0
 40
2.0
100
AcDbArc
 50
92.229046
 51
267.770954
  0
LINE
  5
BAB
100
AcDbEntity
  8
OBJECTS
100
AcDbLine
 10
11.55856
 20
11.863117
 30
0.0
 11
11.62106
 21
11.827032
 31
0.0
1001
ACAD
1000
ASC_BOUNDS
1002
{
1070
    19
1002
}
  0
LINE
  5
BF3
100
AcDbEntity
  8
OBJECTS
100
AcDbLine
 10
13.80856
 20
11.852754
 30
0.0
 11
16.62116
 21
11.852754
 31
0.0
1001
ACAD
1000
ASC_BOUNDS
1002
{
1070
    19
1005
0
1005
0
1005
B9D
1005
BEE
1002
}
  0
INSERT
  5
BFD
100
AcDbEntity
  8
OBJECTS
100
AcDbBlockReference
  2
*X42
 10
0.0
 20
0.0
 30
0.0
1001
ACAD
1000
HATCH
1002
{
1070
    19
1000
_U
1040
0.25
1040
2.356194
1070
     0
1002
}
  0
INSERT
  5
C2E
100
AcDbEntity
  8
OBJECTS
100
AcDbBlockReference
  2
*X43
 10
0.0
 20
0.0
 30
0.0
1001
ACAD
1000
HATCH
1002
{
1070
    19
1000
_U
1040
0.25
1040
2.356194
1070
     0
1002
}
  0
ENDSEC
  0
SECTION
  2
OBJECTS
  0
DICTIONARY
  5
C
100
AcDbDictionary
  3
ACAD_GROUP
350
D
  3
ACAD_MLINESTYLE
350
E
  0
DICTIONARY
  5
D
102
{ACAD_REACTORS
330
C
102
}
100
AcDbDictionary
  0
DICTIONARY
  5
E
102
{ACAD_REACTORS
330
C
102
}
100
AcDbDictionary
  3
STANDARD
350
13
  0
MLINESTYLE
  5
13
102
{ACAD_REACTORS
330
E
102
}
100
AcDbMlineStyle
  2
STANDARD
 70
     0
  3

 62
     0
 51
90.0
 52
90.0
 71
     2
 49
0.5
 62
   256
  6
BYLAYER
 49
-0.5
 62
   256
  6
BYLAYER
  0
ENDSEC
  0
EOF
